Rozen Maiden: Träumend | City Hunter | film de Pierre Coffin

Скачать через торрент Мужское Женское : Чемпионат мира по футболу FIFA 2018 в России™: люди и судьбы Фильм бесплатно в хорошем качестве torrent

Скачивайте на UnionPeer.org фильмы через торрент без регистрации. Новинки кино в хорошем качестве через торрент. На UnionPeer.org можно скачать через торрент фильмы 2014 и 2015 годов. Самые новые фильмы.

Скачать торрент Мужское Женское : Чемпионат мира по футболу FIFA 2018 в России™: люди и судьбы бесплатно через .torrent фильм мультфильм сериал

Статистика раздачи
Размер:  889 MB   |    Зарегистрирован:  8 дней   |    .torrent скачан:  15 раз   |   
Раздают:  1  
   
загрузка...
 
Автор Сообщение

Galfimbul

avatar Galfimbul


Мужское / Женское : Чемпионат мира по футболу FIFA 2018 в России™: люди и судьбы

Вид спорта: Ток-шоу
Дата/Год выпуска: 13.06.2018
Язык комментариев: Русский
Описание: 14 июня в "Лужниках" состоится матч открытия Чемпионата мира по футболу FIFA 2018 в России™. В специальном выпуске - разговор о том, как проходит подготовка к мундиалю и как он изменил жизнь наших соотечественников. Жены футболистов расскажут, как поддерживают мужей перед играми. Коза-оракул из Самарского зоопарка сделает предсказание на предстоящий чемпионат. А русский Левша Владимир Анискин представит миниатюры, посвященные чемпионату.

Автор рипа/записи: собственная запись
Доп. информация: только анонсы внизу экрана

Качество: TVRip
Формат видео: TS
Видео: MPEG4, 720x576, 2731kbps
Аудио: MPEG, stereo, 48kHz, 192kbps
0:40:24
GeneralID : 1 (0x1)Complete name : C:\Users\Nikita\Videos\Мужское Женское. Чемпионат мира по футболу FIFA 2018 в России, люди и судьбы. [2018, Ток-шоу, TVRip].tsFormat : MPEG-TSFile size : 889 MiBDuration : 40 min 22 sOverall bit rate mode : VariableOverall bit rate : 3 077 kb/s

VideoID : 256 (0x100)Menu ID : 1 (0x1)Format : AVCFormat/Info : Advanced Video CodecFormat profile : [email protected] settings : CABAC / 3 Ref FramesFormat settings, CABAC : YesFormat settings, ReFrames : 3 framesCodec ID : 27Duration : 40 min 22 sBit rate : 2 731 kb/sWidth : 720 pixelsHeight : 576 pixelsDisplay aspect ratio : 16:9Frame rate : 25.000 FPSStandard : ComponentColor space : YUVChroma subsampling : 4:2:0Bit depth : 8 bitsScan type : InterlacedScan type, store method : Separated fieldsScan order : Top Field FirstBits/(Pixel*Frame) : 0.263Stream size : 789 MiB (89%)Color range : LimitedColor primaries : BT.601 PALTransfer characteristics : BT.470 System B/GMatrix coefficients : BT.470 System B/G

AudioID : 257 (0x101)Menu ID : 1 (0x1)Format : MPEG AudioFormat version : Version 1Format profile : Layer 2Codec ID : 3Duration : 40 min 23 sBit rate mode : ConstantBit rate : 192 kb/sChannel(s) : 2 channelsSampling rate : 48.0 kHzFrame rate : 41.667 FPS (1152 SPF)Compression mode : LossyDelay relative to video : -1 s 642 msStream size : 55.5 MiB (6%)

MenuID : 4096 (0x1000)Menu ID : 1 (0x1)Duration : 40 min 22 sList : 256 (0x100) (AVC) / 257 (0x101) (MPEG Audio)Service name : Service01Service provider : FFmpegService type : digital television


Трекер:  [ 13-Июн-2018 20:42 ]

  

Скачать .torrent

Размер .torrent файла 35 KB


Размер: 889 MB
Хэш (hash) релиза: 9c05dc3e850d89bc25fe0cf7e5bb04af31384729
Подписка на обновления:

Еще никто не оставлял запись к записи скачать торрент Мужское Женское : Чемпионат мира по футболу FIFA 2018 в России™: люди и судьбы . Будь первым!

!Обратная связь