2018 HDTV | Épisode 12 - - | Trailer Hereditary

Скачать через торрент Если верить Лопотухину... Фильм бесплатно в хорошем качестве torrent

Скачивайте на UnionPeer.org фильмы через торрент без регистрации. Новинки кино в хорошем качестве через торрент. На UnionPeer.org можно скачать через торрент фильмы 2014 и 2015 годов. Самые новые фильмы.

Скачать торрент Если верить Лопотухину... бесплатно через .torrent фильм мультфильм сериал

Статистика раздачи
Размер:  1.59 GB   |    Зарегистрирован:  10 дней   |    .torrent скачан:  22 раза   |   
Раздают:  1  
   
загрузка...
 
Автор Сообщение

Galfimbul

avatar Galfimbul


Если верить Лопотухину...

Жанр: комедия, семейный
Год выпуска: 1983
Продолжительность: 01:05:48 + 01:00:55

Режиссёр: Михаил Козаков

В ролях: Григорий Евсеев, Леонид Броневой, Светлана Крючкова, Борислав Брондуков, Василий Арканов, Наталья Збруева, Максим Кондратьев, Антон Наркевич, Максим Широков, Иван Уфимцев, Виталий Леонов, Александр Варакин, Анна Ардова, Елена Воронина, Ирина Гольцова

Описание: «Если верить Лопотухину» — двухсерийный художественный фильм Михаила Козакова, поставленный по пьесе Александра Хмелика «Гуманоид в небе мчится», рассказывающий о весьма неординарных событиях, которые произошли в школе после того, как Вася Лопотухин из-за встречи с инопланетянами опоздал на урок…

Доп. информация: Запись с канала Родное кино, качество поинтереснее лицензионного двд(который по моему мнению вообще несмотрибелен)

Сэмпл: http://yadi.sk/i/DEkoZ96d3XqJzv

Качество видео: DVB
Формат видео: TS

Видео: Mpeg Video AVC, 720x576, 4:3, ~1626 Кбит/сек, 25 кадров/сек
Аудио: Mpeg Audio MP2, 192 kbps, 48Khz, 2Ch
Общее
Идентификатор : 1 (0x1)
Полное имя : H:\Если верить Лопотухину(1983)\Если верить Лопотухину (1-я серия).ts
Формат : MPEG-TS
Размер файла : 901 Мбайт
Продолжительность : 1 ч. 5 м.
Режим общего битрейта : Переменный
Общий поток : 1914 Кбит/сек

Видео
Идентификатор : 256 (0x100)
Идентификатор меню : 1 (0x1)
Формат : AVC
Формат/Информация : Advanced Video Codec
Профиль формата : [email protected]
Настройки формата : CABAC / 4 Ref Frames
Параметр CABAC формата : Да
Параметр RefFrames формата : 4 кадра
Идентификатор кодека : 27
Продолжительность : 1 ч. 5 м.
Битрейт : 1626 Кбит/сек
Ширина : 720 пикселей
Высота : 576 пикселей
Соотношение сторон : 4:3
Частота кадров : 25,000 кадров/сек
Стандарт вещания : Component
Цветовое пространство : YUV
Субдискретизация насыщенности : 4:2:0
Битовая глубина : 8 бит
Тип развёртки : Чересстрочная
Метод сохранения типа развёртки : Раздельные поля
Порядок развёртки : Верхнее поле первое
Бит/(Пиксели*Кадры) : 0.157
Размер потока : 765 Мбайт (85%)
Цветовой диапазон : Limited
Основные цвета : BT.601 PAL
Характеристики трансфера : BT.470 System B/G
Коэффициенты матрицы : BT.470 System B/G

Аудио
Идентификатор : 257 (0x101)
Идентификатор меню : 1 (0x1)
Формат : MPEG Audio
Версия формата : Version 1
Профиль формата : Layer 2
Идентификатор кодека : 3
Продолжительность : 1 ч. 5 м.
Вид битрейта : Постоянный
Битрейт : 192 Кбит/сек
Каналы : 2 канала
Частота : 48,0 КГц
Частота кадров : 41,667 кадра/сек (1152 SPF)
Метод сжатия : С потерями
Размер потока : 90,4 Мбайт (10%)
Язык : Russian


Трекер:  [ 13-Июн-2018 19:54 ]

  

Скачать .torrent

Размер .torrent файла 16 KB


Размер: 1.59 GB
Хэш (hash) релиза: 1260fa997b042e722bf53f52345d54d241c6efb4
Подписка на обновления:

Еще никто не оставлял запись к записи скачать торрент Если верить Лопотухину... . Будь первым!

!Обратная связь