El Ultimo de los Mohicanos | Alderamin on the Sky (2016) Season S01 BD 1080p x265 10bit AAC 5 1 EN+JA - [Langbard] | Utakata Dialogue

Скачать через торрент Реанимация Code Black Фильм бесплатно в хорошем качестве torrent

Скачивайте на UnionPeer.org фильмы через торрент без регистрации. Новинки кино в хорошем качестве через торрент. На UnionPeer.org можно скачать через торрент фильмы 2014 и 2015 годов. Самые новые фильмы.

Скачать торрент Реанимация Code Black бесплатно через .torrent фильм мультфильм сериал

Статистика раздачи
Размер:  5.49 GB   |    Зарегистрирован:  2 месяца 5 дней   |    .torrent скачан:  19 раз   |   
Раздают:  1  
   
загрузка...
 
Автор Сообщение

Galfimbul

avatar Galfimbul


Реанимация / Code Black
Год выпуска: 2018
Страна: США
Жанр: драма
Продолжительность: ~00:43:00
Перевод: Профессиональный (многоголосый закадровый) | Jaskier
Режиссёры: Роб Боумен, П.Дж. Пеше, Майкл Шульц, Диана Валентайн, Рэндолл Зиск, Ларри Шоу, Эдвард Орнелас, Лин Одинг
В ролях: Марша Гей Харден, Борис Коджо, Уильям Аллен Янг, Гарри Форд, Бен Холлингсворт, Ноа Грэй-Кэби, Эмили Тайра, Эмили Элин Линд, Луис Гусман, Роб Лоу, Мун Бладгуд, Дина Мейер и др.
Описание: Сюжет повествует о госпитале в Лос-Анджелесе, медицинскому персоналу которого приходится сталкиваться с постоянными сбоями в системе управления больницей. Но эти неприятности, которые порой перерастают в настоящие катастрофы, не мешают главным героям день за днём спасать жизни многочисленных пациентов.
<div class="post-box-default">
<div class="post-box" style="border-color: #aed8ff; background: #003465;">Ссылка на предыдущие и альтернативные раздачи</div>
</div>

Качество: WEBRip (исх. WEBRip AMZN 1080p)
Контейнер: AVI
Видео: 720x400 (1.80:1), 23.976 fps, XviD build 50 ~2185 kbps avg, 0.32 bit/pixel
Аудио#1 Rus: 48 kHz, MPEG Layer 3, 2 ch, ~192.00 kbps avg | Jaskier
Аудио#2 Eng: 48 kHz, MPEG Layer 3, 2 ch, ~192.00 kbps avg
Субтитры: Английские (SDH)
Реклама: Отсутствует
Очистка от рекламы и изготовление рипов: ad3wal3

GeneralComplete name : I:\Code.Black.S03E01.WEBRip.XviD.Rus.Eng.Jaskier.aviFormat : AVIFormat/Info : Audio Video InterleaveFile size : 801 MiBDuration : 43 min 21 sOverall bit rate : 2 584 kb/sWriting application : VirtualDubMod 1.5.10.3 (build 2550/release)Writing library : VirtualDubMod build 2550/release

VideoID : 0Format : MPEG-4 VisualFormat profile : Advanced [email protected] settings, BVOP : 1Format settings, QPel : NoFormat settings, GMC : No warppointsFormat settings, Matrix : Default (MPEG)Codec ID : XVIDCodec ID/Hint : XviDDuration : 43 min 21 sBit rate : 2 187 kb/sWidth : 720 pixelsHeight : 400 pixelsDisplay aspect ratio : 16:9Frame rate : 23.976 (24000/1001) FPSColor space : YUVChroma subsampling : 4:2:0Bit depth : 8 bitsScan type : ProgressiveCompression mode : LossyBits/(Pixel*Frame) : 0.317Stream size : 678 MiB (85%)Writing library : XviD 1.2.1 (UTC 2008-12-04)

Audio #1ID : 1Format : MPEG AudioFormat version : Version 1Format profile : Layer 3Mode : Joint stereoMode extension : MS StereoCodec ID : 55Codec ID/Hint : MP3Duration : 43 min 21 sBit rate mode : ConstantBit rate : 192 kb/sChannel(s) : 2 channelsSampling rate : 48.0 kHzCompression mode : LossyStream size : 59.5 MiB (7%)Alignment : Aligned on interleavesInterleave, duration : 42 ms (1.00 video frame)Interleave, preload duratio : 504 msWriting library : LAME3.99rEncoding settings : -m j -V 4 -q 0 -lowpass 18.6 -b 192

Audio #2ID : 2Format : MPEG AudioFormat version : Version 1Format profile : Layer 3Mode : Joint stereoCodec ID : 55Codec ID/Hint : MP3Duration : 43 min 21 sBit rate mode : ConstantBit rate : 192 kb/sChannel(s) : 2 channelsSampling rate : 48.0 kHzCompression mode : LossyStream size : 59.5 MiB (7%)Alignment : Aligned on interleavesInterleave, duration : 42 ms (1.00 video frame)Interleave, preload duratio : 504 msWriting library : LAME3.99rEncoding settings : -m j -V 4 -q 0 -lowpass 18.6 -b 192


(1) остановить скачивание,
(2) удалить старый торрент у себя из клиента (старые серии удалять не надо),
(3) скачать новый торрент и запустить его у себя в клиенте вместо старого, при этом указать клиенту путь в старую папку куда и должно происходить скачивание новых серий.
Ваш клиент при этом должен произвести хеширование (проверку) старой папки (если не производит сам - помогите ему сделать это), и будет докачивать только те серии которых у вас ещё нет. Старые серии при этом не удаляются, а продолжают раздаваться!
Eсли вы уже удалили старые серии, то предотвратить повторную закачку старых серий можно, отжав галочку в соответсвующих местах при запуске нового торрента. По возможности, желательно не удалять старые серии как можно дольше чтобы релизёр не столько продолжал раздавать старые серии, а смог сконцентрироваться на новых.


Трекер:  [ 13-Июн-2018 19:18 ]

  

Скачать .torrent

Размер .torrent файла 15 KB


Размер: 5.49 GB
Хэш (hash) релиза: d765dd6a008dc6d59ab108e19b59b460b4f886e7
Подписка на обновления:

Еще никто не оставлял запись к записи скачать торрент Реанимация Code Black . Будь первым!

!Обратная связь