Spirit Riding Free - Season 5 | Claudio Santamaria | Jenna Ortega

Скачать через торрент Убийцы Tueurs Фильм бесплатно в хорошем качестве torrent

Скачивайте на UnionPeer.org фильмы через торрент без регистрации. Новинки кино в хорошем качестве через торрент. На UnionPeer.org можно скачать через торрент фильмы 2014 и 2015 годов. Самые новые фильмы.

Скачать торрент Убийцы Tueurs бесплатно через .torrent фильм мультфильм сериал

Статистика раздачи
Размер:  1.46 GB   |    Зарегистрирован:  9 дней   |    .torrent скачан:  132 раза   |   
Раздают:  1  
   
загрузка...
 
Автор Сообщение

Galfimbul

avatar Galfimbul


Убийцы / Tueurs

Страна: Франция
Жанр: триллер
Год выпуска: 2017
Продолжительность: 01:26:15
Перевод: Любительский (многоголосый закадровый) | [@[email protected]]
Субтитры: нет
Оригинальная аудиодорожка: нет
Режиссер:
Жан-Франсуа Хенсгенс / Jean-François Hensgens, Франсуа Трукинс / François Troukens
В ролях:
Оливье Гурме, Лубна Азабаль, Кевин Дженссенс, Були Ланнерс, Анн Косенс, Йохан Лейзен, Александр Пико, Наташа Ренье, Жан-Луи Сбий, Тибо Ванденборре
Описание:
Фильм рассказывает о высокопоставленных грабителях, отлично замаскировавшихся под министров и политиков, которые решают обвинить в убийстве судьи местных преступников.

Качество видео: HDRip
Формат видео: AVI

Видео: 720x304 (2.37:1), 24.000 fps, XviD build 73 ~2213 kbps avg, 0.42 bit/pixel
Аудио: 48 kHz, AC3 Dolby Digital, 2/0 (L,R) ch, ~192 kbps
<div class="post-box-default">
<div class="post-box">Сэмпл</div>
</div>
Format                      : AVI
Format/Info                 : Audio Video Interleave
File size                   : 1.46 GiB
Duration                    : 1 h 26 min
Overall bit rate            : 2 415 kb/s
Writing application         : VirtualDubMod 1.5.10.3 | www.virtualdub-fr.org || (build 2550/release)
Writing library             : VirtualDubMod build 2550/release

Video
ID                          : 0
Format                      : MPEG-4 Visual
Format profile              : Advanced [email protected]
Format settings             : BVOP1 / Custom Matrix
Format settings, BVOP       : 1
Format settings, QPel       : No
Format settings, GMC        : No warppoints
Format settings, Matrix     : Custom
Codec ID                    : XVID
Codec ID/Hint               : XviD
Duration                    : 1 h 26 min
Bit rate                    : 2 214 kb/s
Width                       : 720 pixels
Height                      : 304 pixels
Display aspect ratio        : 2.35:1
Frame rate                  : 24.000 FPS
Color space                 : YUV
Chroma subsampling          : 4:2:0
Bit depth                   : 8 bits
Scan type                   : Progressive
Compression mode            : Lossy
Bits/(Pixel*Frame)          : 0.421
Stream size                 : 1.33 GiB (92%)
Writing library             : XviD 73

Audio
ID                          : 1
Format                      : AC-3
Format/Info                 : Audio Coding 3
Codec ID                    : 2000
Duration                    : 1 h 26 min
Bit rate mode               : Constant
Bit rate                    : 192 kb/s
Channel(s)                  : 2 channels
Channel positions           : Front: L R
Sampling rate               : 48.0 kHz
Frame rate                  : 31.250 FPS (1536 SPF)
Bit depth                   : 16 bits
Compression mode            : Lossy
Stream size                 : 118 MiB (8%)
Alignment                   : Split accross interleaves
Interleave, duration        : 42  ms (1.00 video frame)
Interleave, preload duratio : 500  ms
Service kind                : Complete Main
При появлении проф. озвучки, перезалью.

Трекер:  [ 13-Июн-2018 19:01 ]

  

Скачать .torrent

Размер .torrent файла 15 KB


Размер: 1.46 GB
Хэш (hash) релиза: 0cd56399596246f49f2debccf16e6c740bd27412
Подписка на обновления:

Торренты, похожие на Убийцы Tueurs скачать торрент

Форум Название Автор Размер S L Добавлен
Зарубежные фильмы 2016-2018 (Новинки зарубежного кино) ·· Убийцы / Tueurs (2017) HDRip-AVC | L Galfimbul 15560475351.45 GB 0 0 1529131207

09:40

16-Июн-18

Зарубежные фильмы 2016-2018 (Новинки зарубежного кино) ·· Убийцы / Tueurs (2017) BDRip от MegaPeer | L Galfimbul 15642321211.46 GB 0 0 1529080208

19:30

15-Июн-18

Зарубежные фильмы 2016-2018 (Новинки зарубежного кино) ·· Убийцы / Tueurs (2017) BDRip 1080p | L Galfimbul 77826522447.25 GB 0 0 1529065291

15:21

15-Июн-18

Зарубежные фильмы 2016-2018 (Новинки зарубежного кино) ·%· Убийцы / Tueurs (2017) HDRip-AVC от ExKinoRay | L Galfimbul 781239379745 MB 0 0 1528906256

19:10

13-Июн-18

Зарубежные фильмы до 2016 ·· Черная мантия для убийцы / Черное платье для убийцы / Une robe noire pour un tueur (Хосе Джованни / Jose Giovanni) [1981, Франция, триллер, детектив, VHSRip] VO Galfimbul 15172913301.41 GB 0 0 1387269191

11:33

17-Дек-13

Зарубежные фильмы до 2016 ·· Убийцы в спальных вагонах / Compartiment tueurs (Коста-Гаврас / Costa-Gavras) [1965, Франция, детектив, триллер, BDRip 720p] AVO (Янкелевич) + Sub (Eng, Fra) + Original (Fra) Galfimbul 59125952715.51 GB 0 0 1525791680

18:01

8-Май-18

Зарубежные фильмы до 2016 ·· Убийца / Le Tueur (Дени де Ля Пателльер / Denys de La Patellière) [1972, Франция, Италия, Германия (ФРГ), Триллер, Детектив, Драма, DVD5] MVO (Пятый канал) + AVO (Роман Янкелевич) + Sub Eng + Original Fre Galfimbul 41679319043.88 GB 0 0 1518275081

18:04

10-Фев-18

Документальные фильмы и телепередачи ·· Беспилотники-убийцы и тайные войны / Drones tueurs et guerres secretes (Жан-Марциал Лефран / Jean-Martial Lefranc) [2013, документальный, тайны спецслужб, DVB] Original (Fre) + Sub (Rus, Fre) Galfimbul 12299734161.15 GB 0 0 1491245744

21:55

3-Апр-17

Зарубежные фильмы до 2016 ·· Убийцы в спальных вагонах / Compartiment tueurs (Коста-Гаврас / Costa-Gavras) [1965, Франция, детектив, триллер, BDRemux 1080p] AVO (Янкелевич) + Sub Fre + Original Fre Galfimbul 2163448585120.15 GB 0 0 1485510472

12:47

27-Янв-17

Зарубежные фильмы до 2016 ·· Убийцы в спальных вагонах / Compartiment tueurs (Коста-Гаврас / Costa-Gavras) [1965, Франция, детектив, триллер, BDRip 720p] AVO (Янкелевич) + Sub Fre + Original Fre Galfimbul 58742083765.47 GB 0 0 1485432987

15:16

26-Янв-17

Документальные фильмы и телепередачи ·· Ив Монтан и Симона Синьоре о фильме Убийца в спальном вагоне / Yves Montand et Simone Signoret: Compartiment tueurs (Франсуа Гай / Francois Gay) [21.12.1964, документальный, кинематограф, IPTVRip-AVC] Original (Fre) + Sub (Rus) Galfimbul 4270085941 MB 0 0 1435254304

20:45

25-Июн-15

Зарубежные фильмы до 2016 ·· Легкомысленный убийца / Vertige pour un tueur / Vertigo for a Killer (Жан-Пьерр Десанья / Jean-Pierre Desagnat) [1970, Франция, Италия, криминал, TVRip] VO (Urasiko') + Sub Rus (dimmm2v) Galfimbul 13502188181.26 GB 0 0 1377679337

11:42

28-Авг-13

Зарубежные фильмы до 2016 ·· Черная мантия для убийцы / Une robe noire pour un tueur (Хосе Джованни / Jose Giovanni) [1981 г., триллер, детектив, VHSRip] Galfimbul 930882170888 MB 0 0 1364800704

10:18

1-Апр-13

Еще никто не оставлял запись к записи скачать торрент Убийцы Tueurs . Будь первым!

!Обратная связь