The Amazing Race Canada Season 6 Episode 7 s06e07 | Michelle Pfeiffer | Music torrents

Скачать через торрент Полдарк Poldark Фильм бесплатно в хорошем качестве torrent

Скачивайте на UnionPeer.org фильмы через торрент без регистрации. Новинки кино в хорошем качестве через торрент. На UnionPeer.org можно скачать через торрент фильмы 2014 и 2015 годов. Самые новые фильмы.

Скачать торрент Полдарк Poldark бесплатно через .torrent фильм мультфильм сериал

Статистика раздачи
Размер:  1.55 GB   |    Зарегистрирован:  2 месяца 5 дней   |    .torrent скачан:  32 раза   |   
Раздают:  1  
   
загрузка...
 
Автор Сообщение

Galfimbul

avatar Galfimbul


Полдарк / Poldark
Страна: Великобритания
Год выпуска: 2018
Жанр: драма, мелодрама, история
Продолжительность: ~ 00:59:00 мин серия
Перевод: Любительский (многоголосый закадровый) |Baibako|
Премьера (мир): 8 марта 2015
Премьера (РФ): 19 апреля 2016
Режиссер: Джосс Эгнью, Эдвард Базалгетт, Уильям МакГрегор
В главных ролях: Эйдан Тёрнер, Элинор Томлинсон, Хейда Рид, Кайл Соллер, Руби Бенталл, Бети Эдни, Джек Фартинг, Фил Дэвис, Уоррен Кларк
Описание фильма:
Росс Полдарк возвращается домой с войны, надеясь на спокойную и счастливую жизнь в кругу семьи, и обнаруживает, что отец умер, а домом управляют слуги-пьяницы. Невеста Росса, Элизабет, аристократка и красавица, думая, что он погиб в Америке во время Войны за независимость, вышла замуж за его двоюродного брата. Медные рудники, принадлежавшие семье Полдарк, стали вожделенным объектом для врагов. Дуэли, контрабанда, планируемые убийства - всё выходит на поверхность, как только Росс берётся за то, чтобы вернуть своё утраченное состояние. В жестокой борьбе он также обретает истинную любовь в неуправляемой, решительной и энергичной Демелзе. Эта волнующая сага рассказывает о глубоких разногласиях британского общества в преддверии индустриализации и разыгрывается на фоне живописного горного Корнуэлла. По мотивам цикла исторически-авантюрных романов Уинстона Грэхема.
<div class="post-box-default">
<div class="post-box" style="border-color: #d2d2d2; background: #000000;">Предыдущие и альтернативные раздачи</div>
</div>

Качество видео: HDTV 1080p
Формат: MKV
Видео: AVC, 1920 x 1080 (1.783), 25.000 fps, 2964 Кбит/сек
Аудио Rus: AC-3, 48 kHz, 2 ch, 384 kbps |Baibako|
Аудио Eng: AC-3, 48 kHz, 2 ch, 384 kbps |Original|
Субтитры: English
<div class="post-box-default">
<div class="post-box" style="border-color: #d2d2d2; background: #000000;">Реклама: Отсутствует</div>
</div>

ОбщееУникальный идентификатор : 213665040852106225004506434534464268773 (0xA0BE63D8A69CE8D088CD743AB2EBA9E5)Полное имя : E:\_Сериалы\_Сериалы\Полдарк\Poldark.s04.HDTV1080p.Rus.Eng.BaibaKo\Poldark.s04e01.HDTV1080p.Rus.Eng.BaibaKo.mkvФормат : MatroskaВерсия формата : Version 4 / Version 2Размер файла : 1,55 ГбайтПродолжительность : 59 м. 28 с.Общий поток : 3735 Кбит/секДата кодирования : UTC 2018-06-13 11:17:56Программа кодирования : mkvmerge v24.0.0 ('Beyond The Pale') 64-bitБиблиотека кодирования : libebml v1.3.6 + libmatroska v1.4.9

ВидеоИдентификатор : 1Формат : AVCФормат/Информация : Advanced Video CodecПрофиль формата : [email protected]Настройки формата : CABAC / 4 Ref FramesПараметр CABAC формата : ДаПараметр RefFrames формата : 4 кадраИдентификатор кодека : V_MPEG4/ISO/AVCПродолжительность : 59 м. 27 с.Битрейт : 2964 Кбит/секШирина : 1920 пикселейВысота : 1080 пикселейСоотношение сторон : 16:9Режим частоты кадров : ПостоянныйЧастота кадров : 25,000 кадров/секСтандарт вещания : ComponentЦветовое пространство : YUVСубдискретизация насыщенности : 4:2:0Битовая глубина : 8 битТип развёртки : ПрогрессивнаяБит/(Пиксели*Кадры) : 0.057Размер потока : 1,23 Гбайт (79%)Default : ДаForced : НетЦветовой диапазон : LimitedОсновные цвета : BT.709Характеристики трансфера : BT.709Коэффициенты матрицы : BT.709

Аудио #1Идентификатор : 2Формат : AC-3Формат/Информация : Audio Coding 3Идентификатор кодека : A_AC3Продолжительность : 59 м. 28 с.Вид битрейта : ПостоянныйБитрейт : 384 Кбит/секКаналы : 2 каналаРасположение каналов : Front: L RЧастота : 48,0 КГцЧастота кадров : 31,250 кадров/сек (1536 SPF)Битовая глубина : 16 битМетод сжатия : С потерямиРазмер потока : 163 Мбайт (10%)Язык : RussianServiceKind/String : Complete MainDefault : ДаForced : Нет

Аудио #2Идентификатор : 3Формат : AC-3Формат/Информация : Audio Coding 3Идентификатор кодека : A_AC3Продолжительность : 59 м. 28 с.Вид битрейта : ПостоянныйБитрейт : 384 Кбит/секКаналы : 2 каналаРасположение каналов : Front: L RЧастота : 48,0 КГцЧастота кадров : 31,250 кадров/сек (1536 SPF)Битовая глубина : 16 битМетод сжатия : С потерямиРазмер потока : 163 Мбайт (10%)Язык : EnglishServiceKind/String : Complete MainDefault : НетForced : Нет

ТекстИдентификатор : 4Формат : UTF-8Идентификатор кодека : S_TEXT/UTF8Идентификатор кодека/Информация : UTF-8 Plain TextПродолжительность : 58 м. 53 с.Битрейт : 126 бит/секElementCount : 736Размер потока : 54,4 Кбайт (0%)Язык : EnglishDefault : ДаForced : Нет


Раздача ведётся путём добавления новых серий; при каждом добавлении создаётся новый торрент.
Чтобы начать докачку новой серии, пользователям необходимо сделать следующее:
1. остановить скачивание,
2. удалить старый торрент у себя из клиента (старые серии удалять не надо),
3. скачать новый торрент и запустить его у себя в клиенте вместо старого, при этом указать клиенту путь в старую папку, куда и должно происходить скачивание новых серий.

Ваш клиент при этом должен произвести хеширование (проверку) старой папки (если не производит сам - помогите ему сделать это), и будет докачивать только те серии которых у вас ещё нет. Старые серии при этом не удаляются, а продолжают раздаваться!

Eсли вы уже удалили старые серии, то предотвратить повторную закачку старых серий можно, отжав галочку в соответствующих местах при запуске нового торрента. По возможности, желательно не удалять старые серии как можно дольше, чтобы релизёр не столько продолжал раздавать старые серии, а смог сконцентрироваться на новых.

Совет для тех, кто не хочет ждать перехеширования:
Создайте ещё одну папку рядом с папкой сериала (рядом, а не в ней!!!). Каждую новую серию после удачной загрузки копируйте в новую папку так чтобы ваша основная папка всегда была пуста. Когда ваш новый торрент предложит вам закачать все файлы, выберете только последнюю. Для сидирования же укажите адрес новой папки.

Как закачать отдельный файл из торрента или докачать ранее пропущенные файлы торрента!

1. Открыть торрент
2. Снять галки с тех файлов торрента, которые мы не хотим закачивать. Оставляем только на нужных нам файлах (файле).
3. Нажать О.К.

В клиенте utorrent

Инструкция

1) Открыть торрент


2) Снять галки с тех файлов торрента, которые мы не хотим закачивать:

* либо вручную, снимая с каждого файла галку( скрин №1)
* либо, нажав кнопку "Снять метки (Select None)", сняв сразу со всех файлов(скрин №2)
№1
№2
Оставляем только на нужных нам файлах (файле).
3)Нажать О.К

Приятного просмотра!!!

Трекер:  [ 13-Июн-2018 15:18 ]

  

Скачать .torrent

Размер .torrent файла 16 KB


Размер: 1.55 GB
Хэш (hash) релиза: 887c61e37e70810f6bce547a6575d2ca88ffa14a
Подписка на обновления:

Торренты, похожие на Полдарк Poldark скачать торрент

Форум Название Автор Размер S L Добавлен
Зарубежные сериалы ·%· Полдарк / Poldark / Сезон: 4 / Серии: 1 из 8 (Эдвард Базалгетт, Уильям МакГрегор) [2018, Великобритания, Драма, мелодрама, HDTVRip] MVO (BaibaKo) + Original Galfimbul 735111168701 MB 0 0 1528912086

20:48

13-Июн-18

Еще никто не оставлял запись к записи скачать торрент Полдарк Poldark . Будь первым!

!Обратная связь