Reyli-Que_Vueltas_Da_La_Vida-(886974764823)-ES-CD-FLAC-2009-FREGON | VirtualRealityBang.Big.Tits.Brunette.In.VR.Porn.PROPER.XXX.HR.MP4-FaiLED | Ghosted.S01E11.720p.HDTV.x264-LucidTV

Скачать через торрент Знакомство Серии: 1-2 из 2 Фильм бесплатно в хорошем качестве torrent

Скачивайте на UnionPeer.org фильмы через торрент без регистрации. Новинки кино в хорошем качестве через торрент. На UnionPeer.org можно скачать через торрент фильмы 2014 и 2015 годов. Самые новые фильмы.

Скачать торрент Знакомство Серии: 1-2 из 2 бесплатно через .torrent фильм мультфильм сериал

Статистика раздачи
Размер:  1004 MB   |    Зарегистрирован:  11 дней   |    .torrent скачан:  62 раза   |   
Раздают:  1  
   
загрузка...
 
Автор Сообщение

Galfimbul

avatar Galfimbul



Знакомство


Год выпуска: 2017
Производство: Мотор фильм студия
Жанр: детектив, триллер
Продолжительность: ~00:46:00
Субтитры: Нет
Реклама: Отсутствует
Режиссёр: Илья Максимов
В ролях: Павел Баршак, Сергей Маковецкий, Агния Кузнецова, Владимир Епифанцев, Яна Середа, Евгений Буслаков, Екатерина Вуличенко, Дмитрий Ермак
Описание: Коля — молодой эгоист, который уже год как бросил работу, чтобы «найти себя», но вместо реального поиска он погружен в виртуальное общение в социальных сетях. Единственный человек, с которым Коля реально, а не виртуально общается и которому доверяет — его старший брат — художник, любимчик отца и любимец женщин. Но в одно ничем не примечательное утро Коля находит брата мёртвым. Полиция считает, что это самоубийство. Отец, находящийся с Колей не в лучших отношениях, уверен, что сына убили.
Несмотря на сложные отношения с отцом и оторванность от реального мира, Коля решает начать собственное расследование и во чтобы то ни стало найти истинного убийцу брата..


Предыдущие и альтернативные раздачи
Качество: WEBRip / WEBRip 1080p
Формат: MKV
Видео кодек: H.264
Аудио кодек: AC3
Видео: MPEG-4 AVC, 768x432 (16:9), 25.000 fps, ~1332 kbps avg, 0.161 bit/pixel
Аудио: 48 kHz, AC3 Dolby Digital, 2/0 (L,R) ch, ~192 kbps avg
Complete name               : D:\Раздача\Знакомство (2017)\01 - Знакомство (2017).mkv
Format                      : Matroska
Format version              : Version 2
File size                   : 502 MiB
Duration                    : 46 min 0 s
Overall bit rate            : 1 526 kb/s
Movie name                  : 01 - Знакомство (2017)
Encoded date                : UTC 2018-06-13 11:10:58
Writing application         : mkvmerge v4.4.0 ('Die Wiederkehr') сборка от Jan  3 2011 21:40:45
Writing library             : libebml v1.0.0 + libmatroska v1.0.0
Cover                       : Yes
Attachments                 : cover.png

Video
ID                          : 1
Format                      : AVC
Format/Info                 : Advanced Video Codec
Format profile              : [email protected]
Format settings, CABAC      : Yes
Format settings, RefFrames  : 14 frames
Codec ID                    : V_MPEG4/ISO/AVC
Duration                    : 46 min 0 s
Bit rate                    : 1 332 kb/s
Width                       : 768 pixels
Height                      : 432 pixels
Display aspect ratio        : 16:9
Frame rate mode             : Constant
Frame rate                  : 25.000 FPS
Color space                 : YUV
Chroma subsampling          : 4:2:0
Bit depth                   : 8 bits
Scan type                   : Progressive
Bits/(Pixel*Frame)          : 0.161
Stream size                 : 429 MiB (85%)
Title                       : Rip by ivanes20031987
Writing library             : x264 core 155 r2901 7d0ff22
Encoding settings           : cabac=1 / ref=14 / deblock=1:-3:-3 / analyse=0x3:0x113 / me=umh / subme=10 / psy=1 / psy_rd=1.00:0.00 / mixed_ref=1 / me_range=32 / chroma_me=1 / trellis=2 / 8x8dct=1 / cqm=0 / deadzone=21,11 / fast_pskip=0 / chroma_qp_offset=-2 / threads=12 / lookahead_threads=3 / sliced_threads=0 / nr=0 / decimate=0 / interlaced=0 / bluray_compat=0 / constrained_intra=0 / bframes=14 / b_pyramid=2 / b_adapt=2 / b_bias=0 / direct=1 / weightb=1 / open_gop=0 / weightp=2 / keyint=250 / keyint_min=25 / scenecut=40 / intra_refresh=0 / rc_lookahead=60 / rc=2pass / mbtree=0 / bitrate=1332 / ratetol=1.0 / qcomp=0.60 / qpmin=0 / qpmax=69 / qpstep=4 / cplxblur=20.0 / qblur=0.5 / vbv_maxrate=50000 / vbv_bufsize=62500 / nal_hrd=none / filler=0 / ip_ratio=1.40 / pb_ratio=1.30 / aq=1:1.00
Default                     : Yes
Forced                      : No

Audio
ID                          : 2
Format                      : AC-3
Format/Info                 : Audio Coding 3
Format settings, Endianness : Big
Codec ID                    : A_AC3
Duration                    : 46 min 0 s
Bit rate mode               : Constant
Bit rate                    : 192 kb/s
Channel(s)                  : 2 channels
Channel positions           : Front: L R
Sampling rate               : 48.0 kHz
Frame rate                  : 31.250 FPS (1536 SPF)
Bit depth                   : 16 bits
Compression mode            : Lossy
Stream size                 : 63.2 MiB (13%)
Language                    : Russian
Service kind                : Complete Main
Default                     : Yes
Forced                      : No


Трекер:  [ 13-Июн-2018 15:12 ]

  

Скачать .torrent

Размер .torrent файла 20 KB


Размер: 1004 MB
Хэш (hash) релиза: c20a0065e6a0c4d4fafb825ba9a67b96d3dbd4a3
Подписка на обновления:

Торренты, похожие на Знакомство Серии: 1-2 из 2 скачать торрент

Форум Название Автор Размер S L Добавлен
Российские сериалы ·· Знакомство / Серии: 1-2 из 2 (Илья Максимов) [2017, детектив, триллер, WEBRip] Galfimbul 13182853121.23 GB 0 0 1528845147

02:12

13-Июн-18

Российские сериалы ·· Знакомство / Серии: 1-2 из 2 (Илья Максимов) [2017, детектив, триллер, WEBRip 1080p] Galfimbul 42674168193.97 GB 0 0 1528841550

01:12

13-Июн-18

Российские сериалы ·· Знакомство / Серии: 1-2 из 2 (Илья Максимов) [2017,детектив, триллер, SATRip-AVC] aleksan55 12561581331.17 GB 0 0 1528824491

20:28

12-Июн-18

Еще никто не оставлял запись к записи скачать торрент Знакомство Серии: 1-2 из 2 . Будь первым!

!Обратная связь