Xin Ngài Đấy Điền Lão Gia | Teefa In Trouble | Show Me a Hero

Скачать через торрент Мир Дикого запада Westworld Фильм бесплатно в хорошем качестве torrent

Скачивайте на UnionPeer.org фильмы через торрент без регистрации. Новинки кино в хорошем качестве через торрент. На UnionPeer.org можно скачать через торрент фильмы 2014 и 2015 годов. Самые новые фильмы.

Скачать торрент Мир Дикого запада Westworld бесплатно через .torrent фильм мультфильм сериал

Статистика раздачи
Размер:  8.36 GB   |    Зарегистрирован:  2 месяца 5 дней   |    .torrent скачан:  123 раза   |   
Раздают:  2  
   
загрузка...
 
Автор Сообщение

Galfimbul

avatar Galfimbul


Мир Дикого запада / Westworld
Год выпуска: 2018
Страна: США
Жанр: фантастика, драма, детектив, вестерн
Продолжительность: ~01:00:00
Перевод: Профессиональный (многоголосый закадровый) | IdeaFilm
Режиссёры: Ричард Дж. Льюис, Винченцо Натали, Лиза Джой, Крэйг Зобел, Тарик Салех, Николь Кэссел, Ута Бризвитц, Стивен Уильямс, Фред Туа
В ролях: Эван Рэйчел Вуд, Тэнди Ньютон, Джеффри Райт, Джеймс Марсден, Тесса Томпсон, Фарес Фарес, Люк Хемсворт, Луис Хертэм, Саймон Куотерман, Талула Райли, Родриго Санторо, Густаф Скарсгард, Эд Харрис, Энтони Хопкинс, Ингрид Больсё Бердаль, Клифтон Коллинз мл., Анджела Сарафян, Джимми Симпсон, Бен Барнс, Занн МаКларнон, Питер Муллан, Джанкарло Эспозито, Катя Херберс, Шеннон Мари Вудворд, Хироюки Санада, Сидсе Бабетт Кнудсен, Джина Торрес, Стивен Огг и др.
Описание: В футуристическом парке развлечений "Мир Дикого Запада" специально сконструированные андроиды выполняют любые прихоти посетителей, чтобы те чувствовали безнаказанность и полную свободу действий. Если робота убили - не беда, техники его починят, сотрут память и снова поставят в строй, навстречу новому дню и новым людским прихотям. Но оказывается, что далеко не все роботы теряют воспоминания.
<div class="post-box-default">
<div class="post-box" style="border-color: #aed8ff; background: #003465;">Ссылка на предыдущие и альтернативные раздачи</div>
</div>

Качество: WEBRip (исх. WEBRip AMZN 1080p)
Контейнер: AVI
Видео: 720x400 (1.80:1), 23.976 fps, XviD build 50 ~1853 kbps avg, 0.27 bit/pixel
Аудио#1 Rus: 48 kHz, MPEG Layer 3, 2 ch, ~192.00 kbps avg | IdeaFilm
Аудио#2 Eng: 48 kHz, MPEG Layer 3, 2 ch, ~192.00 kbps avg
Субтитры: Русские (Forced), Русские (Amedia), Английские (SDH)
Реклама: Отсутствует
Очистка от рекламы и изготовление рипов: ad3wal3

<div style="margin-left: 2em" class="post-ul">01. Путешествие в ночь / Journey Into Night
02. Воссоединение / Reunion
03. Добродетель и удача / Virtu e Fortuna
04. Загадка Сфинкса / The Riddle of the Sphinx
05. Гребля Аканэ / Akane No Mai
06. Космическая фаза / Phase Space
07. Свежеватели / Les Ecorches
08. Киксуйя / Kiksuya
</div>
GeneralComplete name : I:\Westworld.S02E01.WEBRip.XviD.Rus.Eng.IdeaFilm.aviFormat : AVIFormat/Info : Audio Video InterleaveFile size : 1.17 GiBDuration : 1 h 14 minOverall bit rate : 2 252 kb/sWriting application : VirtualDubMod 1.5.10.3 (build 2550/release)Writing library : VirtualDubMod build 2550/release

VideoID : 0Format : MPEG-4 VisualFormat profile : Advanced [email protected] settings, BVOP : 1Format settings, QPel : NoFormat settings, GMC : No warppointsFormat settings, Matrix : Default (MPEG)Codec ID : XVIDCodec ID/Hint : XviDDuration : 1 h 14 minBit rate : 1 855 kb/sWidth : 720 pixelsHeight : 400 pixelsDisplay aspect ratio : 16:9Frame rate : 23.976 (24000/1001) FPSColor space : YUVChroma subsampling : 4:2:0Bit depth : 8 bitsScan type : ProgressiveCompression mode : LossyBits/(Pixel*Frame) : 0.269Stream size : 991 MiB (82%)Writing library : XviD 1.2.1 (UTC 2008-12-04)

Audio #1ID : 1Format : MPEG AudioFormat version : Version 1Format profile : Layer 3Mode : Joint stereoMode extension : MS StereoCodec ID : 55Codec ID/Hint : MP3Duration : 1 h 14 minBit rate mode : ConstantBit rate : 192 kb/sChannel(s) : 2 channelsSampling rate : 48.0 kHzCompression mode : LossyStream size : 103 MiB (9%)Alignment : Aligned on interleavesInterleave, duration : 42 ms (1.00 video frame)Interleave, preload duratio : 504 msWriting library : LAME3.99rEncoding settings : -m j -V 4 -q 0 -lowpass 18.6 -b 192

Audio #2ID : 2Format : MPEG AudioFormat version : Version 1Format profile : Layer 3Mode : Joint stereoMode extension : MS StereoCodec ID : 55Codec ID/Hint : MP3Duration : 1 h 14 minBit rate mode : ConstantBit rate : 192 kb/sChannel(s) : 2 channelsSampling rate : 48.0 kHzCompression mode : LossyStream size : 103 MiB (9%)Alignment : Aligned on interleavesInterleave, duration : 42 ms (1.00 video frame)Interleave, preload duratio : 504 msWriting library : LAME3.99rEncoding settings : -m j -V 4 -q 0 -lowpass 18.6 -b 192


(1) остановить скачивание,
(2) удалить старый торрент у себя из клиента (старые серии удалять не надо),
(3) скачать новый торрент и запустить его у себя в клиенте вместо старого, при этом указать клиенту путь в старую папку куда и должно происходить скачивание новых серий.
Ваш клиент при этом должен произвести хеширование (проверку) старой папки (если не производит сам - помогите ему сделать это), и будет докачивать только те серии которых у вас ещё нет. Старые серии при этом не удаляются, а продолжают раздаваться!
Eсли вы уже удалили старые серии, то предотвратить повторную закачку старых серий можно, отжав галочку в соответсвующих местах при запуске нового торрента. По возможности, желательно не удалять старые серии как можно дольше чтобы релизёр не столько продолжал раздавать старые серии, а смог сконцентрироваться на новых.


Трекер:  [ 13-Июн-2018 14:48 ]

  

Скачать .torrent

Размер .torrent файла 24 KB


Размер: 8.36 GB
Хэш (hash) релиза: 679841c25050dc02c59ab4943fef7833561e7e93
Подписка на обновления:

Еще никто не оставлял запись к записи скачать торрент Мир Дикого запада Westworld . Будь первым!

!Обратная связь