Femme Fatale: Cinema's Most Unforgettable Lethal Ladies | Fassbinder: Film Maker | Haptics Technologies: Bringing Touch to Multimedia

Скачать через торрент Клуб обманутых жен Серии: 1-2 из 2 Фильм бесплатно в хорошем качестве torrent

Скачивайте на UnionPeer.org фильмы через торрент без регистрации. Новинки кино в хорошем качестве через торрент. На UnionPeer.org можно скачать через торрент фильмы 2014 и 2015 годов. Самые новые фильмы.

Скачать торрент Клуб обманутых жен Серии: 1-2 из 2 бесплатно через .torrent фильм мультфильм сериал

Статистика раздачи
Размер:  2.92 GB   |    Зарегистрирован:  9 дней   |    .torrent скачан:  46 раз   |   
Раздают:  1  
   
загрузка...
 
Автор Сообщение

Galfimbul

avatar Galfimbul



Клуб обманутых жен


Год выпуска: 2018
Производство: Кинокомпания "Русское"
Жанр: мелодрама, детектив
Продолжительность: ~ 01:30:00
Субтитры: нет
Реклама: Отсутствует
Режиссёр: Елена Яковлева
В ролях: Любава Грешнова, Елена Вожакина, Светлана Колпакова, Роман Полянский, Сергей Рудзевич, Павел Крайнов, Александр Давыдов, Алёна Коломина, Максим Житник, Лиза Измайлова
Описание: Оля, Иза и Даша пережили предательство своих мужей. Личные обстоятельства привели их на тренинг по «преодолению кризиса в личной жизни». Но, поняв, что тренинг им не поможет, они решают взять дело по «спасению утопающих» в собственные руки! Олю, Изу и Дашу ничего не связывало в прошлой жизни. Они понимают, что могут помочь друг другу решить все свои проблемы, не вызвав подозрения у мужей и знакомых. Обманутые жены решают воспользоваться классическим приемом детективного жанра — «убийство по обмену». Операция «Клуб обманутых жен» начинается!..


Качество: WEBRip
Формат: AVI
Видео кодек: XviD
Аудио кодек: AC3
Видео: XviD build 67, 720x400 (16:9), 25.000 fps, ~2093 kbps avg, 0.291 bit/pixel
Аудио: 48 kHz, AC3 Dolby Digital, 2/0 (L,R) ch, ~192 kbps avg
Complete name               : D:\Раздача\Клуб обманутых жен (2018)\01 - Клуб обманутых жен (2018).avi
Format                      : AVI
Format/Info                 : Audio Video Interleave
File size                   : 1.46 GiB
Duration                    : 1 h 31 min
Overall bit rate            : 2 295 kb/s
Writing application         : VirtualDubMod 1.5.10.3 (build 2550/release)
Writing library             : VirtualDubMod build 2550/release

Video
ID                          : 0
Format                      : MPEG-4 Visual
Format profile              : Advanced [email protected]
Format settings, BVOP       : 1
Format settings, QPel       : No
Format settings, GMC        : No warppoints
Format settings, Matrix     : Custom
Codec ID                    : XVID
Codec ID/Hint               : XviD
Duration                    : 1 h 31 min
Bit rate                    : 2 093 kb/s
Width                       : 720 pixels
Height                      : 400 pixels
Display aspect ratio        : 16:9
Frame rate                  : 25.000 FPS
Color space                 : YUV
Chroma subsampling          : 4:2:0
Bit depth                   : 8 bits
Scan type                   : Progressive
Compression mode            : Lossy
Bits/(Pixel*Frame)          : 0.291
Stream size                 : 1.33 GiB (91%)
Writing library             : XviD 67

Audio
ID                          : 1
Format                      : AC-3
Format/Info                 : Audio Coding 3
Format settings, Endianness : Big
Codec ID                    : 2000
Duration                    : 1 h 31 min
Bit rate mode               : Constant
Bit rate                    : 192 kb/s
Channel(s)                  : 2 channels
Channel positions           : Front: L R
Sampling rate               : 48.0 kHz
Frame rate                  : 31.250 FPS (1536 SPF)
Bit depth                   : 16 bits
Compression mode            : Lossy
Stream size                 : 125 MiB (8%)
Alignment                   : Split accross interleaves
Interleave, duration        : 40  ms (1.00 video frame)
Interleave, preload duratio : 500  ms
Service kind                : Complete Main


Трекер:  [ 13-Июн-2018 13:42 ]

  

Скачать .torrent

Размер .torrent файла 15 KB


Размер: 2.92 GB
Хэш (hash) релиза: a014d94a64f013a353c940fbe9e626e71db74c2f
Подписка на обновления:

Еще никто не оставлял запись к записи скачать торрент Клуб обманутых жен Серии: 1-2 из 2 . Будь первым!

!Обратная связь