Franz Ferdinand Sparks (FFS) | Terry Gill | Allegiance (2015) - Saison 1

Скачать через торрент Диета из Санта-Клариты Santa Clarita Diet Фильм бесплатно в хорошем качестве torrent

Скачивайте на UnionPeer.org фильмы через торрент без регистрации. Новинки кино в хорошем качестве через торрент. На UnionPeer.org можно скачать через торрент фильмы 2014 и 2015 годов. Самые новые фильмы.

Скачать торрент Диета из Санта-Клариты Santa Clarita Diet бесплатно через .torrent фильм мультфильм сериал

Статистика раздачи
Размер:  4.44 GB   |    Зарегистрирован:  12 дней   |    .torrent скачан:  46 раз   |   
Раздают:  1  
   
загрузка...
 
Автор Сообщение

Galfimbul

avatar Galfimbul


Диета из Санта-Клариты / Santa Clarita Diet

Год: 2018
Страна: США
Жанр: Ужасы, комедия
Продолжительность: 00:28:00
Перевод: Профессиональный (многоголосый закадровый) (AMS)
Оригинальная аудиодорожка: Английский
Субтитры: Нет

Режиссер: Марк Баклэнд, Кен Куопис, Стив Пинк

В ролях: Дрю Бэрримор, Тимоти Олифант, Лив Хьюсон, Скайлер Гизондо, Мэри Элизабет Эллис, Ричард Т. Джонс, Рикардо Чавира, Натали Моралес, Томас Леннон, Нэйтан Филлион и другие

Описание: Джоэль и Шейла — вполне счастливая семейная пара с детьми из Санта-Клариты. Но однажды Шейла умирает. И не умирает. Непонятно, как так вышло, но женщина вполне себе жива, а сердце у неё не бьётся. Кроме того, Шейла ещё вдруг очень начинает любить есть сырое мясо. Непросто будет семье принять новые привычки жены и мамы.

Семпл

Предыдущие и альтернативные раздачи

Исходник: WEBRip 720p ...5546709

Качество видео: WEBRip
Формат видео: AVI
Видео: XviD, 688x384, ~1 767 Kbps, 23,976 fps
Аудио:
№1 192 Kbps, 48 KHz, 2 ch, MP3 AMS
№2 192 Kbps, 48 KHz, 2 ch, MP3 Английский

Реклама: Отсутствует
General
Complete name : E:\Santa.Clarita.Diet.S02.AMS\Santa.Clarita.Diet.S02E02.AMS.avi
Format : AVI
Format/Info : Audio Video Interleave
File size : 452 MiB
Duration : 29mn 12s
Overall bit rate : 2 165 Kbps
Writing application : VirtualDubMod 1.5.10.3 | www.virtualdub-fr.org || (build 2550/release)
Writing library : VirtualDubMod build 2550/release

Video
ID : 0
Format : MPEG-4 Visual
Format profile : Advanced [email protected]
Format settings, BVOP : Yes
Format settings, QPel : No
Format settings, GMC : No warppoints
Format settings, Matrix : Default (MPEG)
Codec ID : XVID
Codec ID/Hint : XviD
Duration : 29mn 12s
Bit rate : 1 767 Kbps
Width : 688 pixels
Height : 384 pixels
Display aspect ratio : 16:9
Frame rate : 23.976 fps
Resolution : 8 bits
Colorimetry : 4:2:0
Scan type : Progressive
Bits/(Pixel*Frame) : 0.279
Stream size : 369 MiB (82%)
Writing library : XviD 73

Audio #1
ID : 1
Format : MPEG Audio
Format version : Version 1
Format profile : Layer 3
Mode : Joint stereo
Format_Settings_ModeExtension : MS Stereo
Codec ID : 55
Codec ID/Hint : MP3
Duration : 29mn 12s
Bit rate mode : Constant
Bit rate : 192 Kbps
Channel(s) : 2 channels
Sampling rate : 48.0 KHz
Stream size : 40.1 MiB (9%)
Alignment : Aligned on interleaves
Interleave, duration : 42 ms (1.00 video frame)
Interleave, preload duration : 504 ms
Writing library : LAME3.97

Audio #2
ID : 2
Format : MPEG Audio
Format version : Version 1
Format profile : Layer 3
Mode : Joint stereo
Format_Settings_ModeExtension : MS Stereo
Codec ID : 55
Codec ID/Hint : MP3
Duration : 29mn 12s
Bit rate mode : Constant
Bit rate : 192 Kbps
Channel(s) : 2 channels
Sampling rate : 48.0 KHz
Stream size : 40.1 MiB (9%)
Alignment : Aligned on interleaves
Interleave, duration : 42 ms (1.00 video frame)
Interleave, preload duration : 504 ms


Трекер:  [ 13-Июн-2018 12:48 ]

  

Скачать .torrent

Размер .torrent файла 12 KB


Размер: 4.44 GB
Хэш (hash) релиза: 2e95419733fe1a87cccaa9974161e29a1f0e120e
Подписка на обновления:

Торренты, похожие на Диета из Санта-Клариты Santa Clarita Diet скачать торрент

Форум Название Автор Размер S L Добавлен
Зарубежные сериалы ·· Диета из Санта-Клариты / Santa Clarita Diet / Сезон: 2 / Серии: 1-10 из 10 (Марк Баклэнд, Кен Куопис, Стив Пинк) [2018, США, Ужасы, комедия, WEBRip 720p] MVO (AMS) + Original Eng Galfimbul 1521196699114.17 GB 0 0 1523314092

01:48

10-Апр-18

Еще никто не оставлял запись к записи скачать торрент Диета из Санта-Клариты Santa Clarita Diet . Будь первым!

!Обратная связь