Regarder Le Film | Buddy Go! | Gonjiam: Haunted Asylum (2018)

Скачать через торрент Чёрные воды Black Water Фильм бесплатно в хорошем качестве torrent

Скачивайте на UnionPeer.org фильмы через торрент без регистрации. Новинки кино в хорошем качестве через торрент. На UnionPeer.org можно скачать через торрент фильмы 2014 и 2015 годов. Самые новые фильмы.

Скачать торрент Чёрные воды Black Water бесплатно через .torrent фильм мультфильм сериал

Статистика раздачи
Размер:  6.83 GB   |    Зарегистрирован:  2 месяца 4 дня   |    .torrent скачан:  37 раз   |   
Раздают:  1  
   
загрузка...
 
Автор Сообщение

Galfimbul

avatar Galfimbul


Чёрные воды / Black Water

Год выхода: 2018
Жанр: Боевик
Режиссер: Павел Патрики
В ролях: Аарон О'Коннелл, Дольф Лундгрен, Жан-Клод Ван Дамм, Патрик Килпатрик, Ал Сапиенца, Джасмин Уолтц, Джон Пози, Кристофер Ван Варенберг, Кортни Би Турк

О фильме: Законспирированный агент под прикрытием Скотт Уилер приходит в себя где-то посреди Атлантического океана. Он оказывается в тайной тюрьме ЦРУ на подводной лодке, а значит сбежать оттуда — практически невозможно. Однако такого слова нет в словаре шпиона-легенды, к тому же на помощь к нему приходит немецкий агент Марко. Вместе им предстоит распутать дело о предательстве национального масштаба, перебить команду хорошо обученной охраны и найти путь наружу. Но сперва необходимо вспомнить, что же на самом деле произошло и закинуло агента Уилера в место, которого не существует ни в одних правительственных документах?

Страна: США, Канада
Студия: Dawn's Light
Продолжительность: 01:40:19
Перевод: Любительский двухголосый [HiWay Grope]
Файл
Кодек: MPEG-2
Качество: DVD-9
Видео: MPEG2, PAL 16:9 ([email protected]) VBR, 25,000 кадров/сек
Звук: Русский DD 2.0 (192 Kbps), Английский / Немецкий DD 5.1 (448 Kbps)

Title:
Size: 6.83 Gb ( 7 164 022 KBytes ) - DVD-9
Enabled regions: 1, 2, 3, 4, 5, 6, 7, 8

VTS_01 :
Play Length: 00:00:19
Video: PAL 16:9 (720x576) VBR, Auto Pan&Scan
Audio:
Deutsch (Dolby AC3, 2 ch)

VTS_02 :
Play Length: 00:00:15
Video: PAL 16:9 (720x576) VBR, Auto Pan&Scan
Audio:
Deutsch (Dolby AC3, 2 ch)

VTS_03 :
Play Length: 01:40:19
Video: PAL 16:9 (720x576) VBR, Auto Pan&Scan
Audio:
Deutsch (Dolby AC3, 6 ch)
English (Dolby AC3, 6 ch)
Russian (Dolby AC3, 2 ch)
Subtitles:
Deutsch

VTS_04 :
Play Length: 00:01:05
Video: PAL 16:9 (720x576) VBR, Auto Pan&Scan
Audio:
English (Dolby AC3, 2 ch)

VTS_05 :
Play Length: 00:00:49
Video: PAL 16:9 (720x576) VBR, Auto Pan&Scan
Audio:
Deutsch (Dolby AC3, 2 ch)

VTS_06 :
Play Length: 00:02:06
Video: PAL 16:9 (720x576) VBR, Auto Pan&Scan
Audio:
Deutsch (Dolby AC3, 6 ch)

VTS_07 :
Play Length: 00:01:47
Video: PAL 16:9 (720x576) VBR, Auto Pan&Scan
Audio:
Deutsch (Dolby AC3, 6 ch)

VTS_08 :
Play Length: 00:01:21
Video: PAL 16:9 (720x576) VBR, Auto Pan&Scan
Audio:
Deutsch (Dolby AC3, 2 ch)

VTS_09 :
Play Length: 00:00:08
Video: PAL 16:9 (720x576) VBR, Auto Pan&Scan
Audio:
Deutsch (Dolby AC3, 2 ch)
English (Dolby AC3, 2 ch)
Subtitles:
Deutsch

VTS_10 :
Play Length: 00:00:10
Video: PAL 16:9 (720x576) VBR, Auto Pan&Scan
Audio:
English (Dolby AC3, 2 ch)
Subtitles:
Deutsch

Menu Video:
NTSC 4:3 (720x480) VBR
Auto Pan&Scan, Auto Letterboxed
Menu Deutsch Language Unit :
Root Menu
Общее
Полное имя : G:ААА2ЧЕРНЫЕ ВОДЫVIDEO_TSVTS_03_1.VOB
Формат : MPEG-PS
Размер файла : 1024 Мбайт
Продолжительность : 15 м.
Режим общего битрейта : Переменный
Общий поток : 9256 Кбит/сек

Видео
Идентификатор : 224 (0xE0)
Формат : MPEG Video
Версия формата : Version 2
Профиль формата : [email protected]
Параметр BVOP формата : Да
Параметр матрицы формата : Выборочная
Параметр GOP формата : Variable
Продолжительность : 15 м.
Вид битрейта : Переменный
Битрейт : 8000 Кбит/сек
Ширина : 720 пикселей
Высота : 576 пикселей
Соотношение сторон : 16:9
Частота кадров : 25,000 кадров/сек
Стандарт вещания : PAL
Цветовое пространство : YUV
Субдискретизация насыщенности : 4:2:0
Битовая глубина : 8 бит
Тип развёртки : Чересстрочная
Порядок развёртки : Верхнее поле первое
Метод сжатия : С потерями
Бит/(Пиксели*Кадры) : 0.772
TimeCode_FirstFrame : 01:00:00:00
TimeCode_Source : Group of pictures header
Размер потока : 883 Мбайт (86%)

Аудио #1
Идентификатор : 189 (0xBD)-128 (0x80)
Формат : AC-3
Формат/Информация : Audio Coding 3
Расширение режима : CM (complete main)
Параметр Endianness формата : Big
Режим смешивания : DVD-Video
Продолжительность : 15 м.
Вид битрейта : Постоянный
Битрейт : 448 Кбит/сек
Каналы : 6 каналов
Расположение каналов : Front: L C R, Side: L R, LFE
Частота : 48,0 КГц
Битовая глубина : 16 бит
Метод сжатия : С потерями
Размер потока : 49,5 Мбайт (5%)

Аудио #2
Идентификатор : 189 (0xBD)-129 (0x81)
Формат : AC-3
Формат/Информация : Audio Coding 3
Расширение режима : CM (complete main)
Параметр Endianness формата : Big
Режим смешивания : DVD-Video
Продолжительность : 15 м.
Вид битрейта : Постоянный
Битрейт : 448 Кбит/сек
Каналы : 6 каналов
Расположение каналов : Front: L C R, Side: L R, LFE
Частота : 48,0 КГц
Битовая глубина : 16 бит
Метод сжатия : С потерями
Размер потока : 49,5 Мбайт (5%)

Аудио #3
Идентификатор : 189 (0xBD)-130 (0x82)
Формат : AC-3
Формат/Информация : Audio Coding 3
Расширение режима : CM (complete main)
Параметр Endianness формата : Big
Режим смешивания : DVD-Video
Продолжительность : 15 м.
Вид битрейта : Постоянный
Битрейт : 192 Кбит/сек
Каналы : 2 канала
Расположение каналов : Front: L R
Частота : 48,0 КГц
Битовая глубина : 16 бит
Метод сжатия : С потерями
Размер потока : 21,2 Мбайт (2%)

Текст
Идентификатор : 189 (0xBD)-32 (0x20)
Формат : RLE
Формат/Информация : Run-length encoding
Режим смешивания : DVD-Video

Меню
Релиз:
Источник http://blator.org

Трекер:  [ 13-Июн-2018 12:30 ]

  

Скачать .torrent

Размер .torrent файла 37 KB


Размер: 6.83 GB
Хэш (hash) релиза: ffe758b8ccc7ed6388e0441e9718a5a9c7edb0d3
Подписка на обновления:

Торренты, похожие на Чёрные воды Black Water скачать торрент

Форум Название Автор Размер S L Добавлен
Зарубежные фильмы 2016-2018 (Новинки зарубежного кино) ·· Чёрные воды / Black Water (Павел Патрики / Pavel Patriki) [2018, Канада, боевик, драма, BDRip] HDrezka Studio Galfimbul 15725916161.46 GB 2 0 1528719613

15:20

11-Июн-18

Зарубежные фильмы 2016-2018 (Новинки зарубежного кино) ·· Чёрные воды / Black Water (Павел Патрики) [2018 г., боевик, BDRip 720p] HDrezka Studio Galfimbul 56458898275.26 GB 0 0 1528711232

13:00

11-Июн-18

Зарубежные фильмы до 2016 ·· Чёрные воды / Black Water (Павел Патрики / Pavel Patriki) [2018, Канада, боевик, драма, BDRip 1080p] DVO (HiWay Grope) + Original Eng Galfimbul 1113696061410.37 GB 0 0 1527577299

10:01

29-Май-18

Зарубежные фильмы 2016-2018 (Новинки зарубежного кино) ·· Чёрные воды / Black Water (Павел Патрики) [2018 г., боевик, WEBRip] Galfimbul 14098616321.31 GB 0 0 1521482418

21:00

19-Мар-18

Зарубежные фильмы 2016-2018 (Новинки зарубежного кино) ·· Чёрные воды / Black Water (Павел Патрики) [2018 г., боевик, WEB-DLRip] MVO | Синема УС Galfimbul 14706790401.37 GB 5 6 1521183889

10:04

16-Мар-18

Зарубежные фильмы до 2016 ·· Вампир чёрной воды / The Black Water Vampire (Evan Tramel) [2014, ужасы, триллер, детектив, DVDRip] Galfimbul 14645882881.36 GB 0 0 1445973279

22:14

27-Окт-15

Еще никто не оставлял запись к записи скачать торрент Чёрные воды Black Water . Будь первым!

!Обратная связь