Download REACTION - Sugarland Feat. Taylor Swift - Babe (Music Video) mp3 | fedaye lacjn | New Microsoft Office Word Document (3)

Скачать через торрент Когти Claws Фильм бесплатно в хорошем качестве torrent

Скачивайте на UnionPeer.org фильмы через торрент без регистрации. Новинки кино в хорошем качестве через торрент. На UnionPeer.org можно скачать через торрент фильмы 2014 и 2015 годов. Самые новые фильмы.

Скачать торрент Когти Claws бесплатно через .torrent фильм мультфильм сериал

Статистика раздачи
Размер:  557 MB   |    Зарегистрирован:  10 дней   |    .torrent скачан:  34 раза   |   
Раздают:  1  
   
загрузка...
 
Автор Сообщение

Galfimbul

avatar Galfimbul


Когти / Claws

Год выпуска: 2018
Страна: США
Жанр: драма, комедия, криминал
Продолжительность: 00:45:00

Перевод: Профессиональный (двухголосый закадровый) [Gears Media]

Режиссёр: Ховард Дойч, Николь Кэссел, Триша Брок
В ролях: Ниси Нэш, Кэрри Престон, Джуди Рейес, Карруче Тран, Дженн Лион, Джек Кеси, Кевин О. Ранкин, Джейсон Антун, Хэролд Перрино, Дин Норрис и др.

Описание: Сериал о нескольких работницах маникюрного салона в Южной Флориде, которые решили потеснить представителей противоположного пола в традиционно мужском мире организованной преступности.

Ссылка на предыдущие и альтернативные раздачи: http://rutracker.org/forum/tracker.php?g=foreign_serials&nm=Claws

Сэмпл: http://multi-up.com/1201396

Качество: WEB-DLRip
Формат: AVI
Видео: XviD, 720x400 at 23.976 fps, ~1500 kbps avg
Аудио1: Russian, MP3, 48 kHz, 2 ch, 128 kbps
Аудио2: English, MP3, 48 kHz, 2 ch, 128 kbps
Субтитры: нет
Реклама: аудио (два раза, в начале и конце, по 12 сек.)
Format : AVI
Format/Info : Audio Video Interleave
File size : 557 MiB
Duration : 44 min 7 s
Overall bit rate : 1 764 kb/s
Writing application : Lavf56.30.100

Video
ID : 0
Format : xvid
Codec ID : xvid
Duration : 44 min 7 s
Bit rate : 1 487 kb/s
Width : 720 pixels
Height : 400 pixels
Display aspect ratio : 16:9
Frame rate : 23.976 (24000/1001) FPS
Scan type : Progressive
Bits/(Pixel*Frame) : 0.215
Stream size : 469 MiB (84%)

Audio #1
ID : 1
Format : MPEG Audio
Format version : Version 1
Format profile : Layer 3
Format settings : Joint stereo / MS Stereo
Codec ID : 55
Codec ID/Hint : MP3
Duration : 44 min 7 s
Bit rate mode : Constant
Bit rate : 128 kb/s
Channel(s) : 2 channels
Sampling rate : 48.0 kHz
Compression mode : Lossy
Stream size : 40.4 MiB (7%)
Alignment : Aligned on interleaves
Interleave, duration : 24 ms (0.58 video frame)
Interleave, preload duratio : 24 ms
Title : Gears Media
Writing library : LAME3.99.5ЄЄЄЄЄЄЄЄЄЄ

Audio #2
ID : 2
Format : MPEG Audio
Format version : Version 1
Format profile : Layer 3
Format settings : Joint stereo / MS Stereo
Codec ID : 55
Codec ID/Hint : MP3
Duration : 44 min 7 s
Bit rate mode : Constant
Bit rate : 128 kb/s
Channel(s) : 2 channels
Sampling rate : 48.0 kHz
Compression mode : Lossy
Stream size : 40.4 MiB (7%)
Alignment : Aligned on interleaves
Interleave, duration : 24 ms (0.58 video frame)
Interleave, preload duratio : 24 ms
Writing library : LAME3.99.
<div class="sp-wrap">
<div class="sp-head folded">Внимание! Раздача ведётся путём добавления новых серий</div>
<div class="sp-body">[b]Внимание! Раздача ведётся путём добавления новых серий; при каждом добавлении создаётся новый торрент. Чтобы начать докачку новой серии, пользователям необходимо сделать следующее:
(1) остановить скачивание,
(2) удалить старый торрент у себя из клиента (старые серии удалять не надо),
(3) скачать новый торрент и запустить его у себя в клиенте вместо старого, при этом указать клиенту путь в старую папку куда и должно происходить скачивание новых серий.

Eсли вы уже удалили старые серии, то предотвратить повторную закачку старых серий можно, отжав галочку в соответствующих местах при запуске нового торрента. По возможности, желательно не удалять старые серии как можно дольше чтобы релизёр не столько продолжал раздавать старые серии, а смог сконцентрироваться на новых.</div>
</div>

Трекер:  [ 13-Июн-2018 12:18 ]

  

Скачать .torrent

Размер .torrent файла 11 KB


Размер: 557 MB
Хэш (hash) релиза: 8b6d8fcce3ee2882fad2336580a880aaa7652f63
Подписка на обновления:

Еще никто не оставлял запись к записи скачать торрент Когти Claws . Будь первым!

!Обратная связь