Man from the Stars | Maribel Verdú | Urban Myths: Season ...

Скачать через торрент Плащ и Кинжал Cloak and Dagger Фильм бесплатно в хорошем качестве torrent

Скачивайте на UnionPeer.org фильмы через торрент без регистрации. Новинки кино в хорошем качестве через торрент. На UnionPeer.org можно скачать через торрент фильмы 2014 и 2015 годов. Самые новые фильмы.

Скачать торрент Плащ и Кинжал Cloak and Dagger бесплатно через .torrent фильм мультфильм сериал

Статистика раздачи
Размер:  947 MB   |    Зарегистрирован:  8 дней   |    .torrent скачан:  37 раз   |   
Раздают:  1  
   
загрузка...
 
Автор Сообщение

Galfimbul

avatar Galfimbul


Плащ и Кинжал / Cloak and Dagger

Год выпуска: 2018
Страна: США
Жанр: Драма, фантастика, приключения
Продолжительность: 00:45:00

Перевод: Профессиональный (двухголосый закадровый) [Gears Media]

Режиссёр: Джина Принс-Байтвуд
В ролях: Дерик Августин, Ноэль Рени Берси, Маркус Клэй, Митч Крафт, Майкл Винсент Донован, Дж.Д. Эвермор, Брайан Майкл Холл, Шон Брэдли Хофер, Оливия Холт, Обри Джозеф и др.

Описание: Молодежный фантастический сериал, созданный по мотивам одноименной серии комиксов Marvel. В качестве одного из продюсеров проекта выступил легендарный Стэн Ли – создатель Человека-паука, Людей Икс, Доктора Стрэнджа, Железного человека, Сорвиголовы, Тора и многих других супергероев. Тэнди Боуэн (Оливия Холт) – красивая девушка, которая промышляет воровством: она мечтает скопить побольше денег, чтобы навсегда сбежать из-под опеки своей эгоистичной матери. Тайрон Джонсон (Обри Джозеф) – замкнутый подросток-афроамериканец, выросший в бедном районе. Случайная встреча на школьной вечеринке изменит жизнь обоих: вскоре Тэнди и Тайрон обнаружат у себя сверхспособности, которыми они пока не в силах управлять. Тэнди способна генерировать световые кинжалы, а Тайрон может перемещаться в пространстве с помощью некой темной энергии. Разгадка удивительных способностей подростков кроется в их общем прошлом – роковой штормовой ночи, когда Тэнди потеряла отца, а Тайрон – брата. Постепенно Тэнди и Тайрон понимают, что им лучше держаться вместе, ведь только так они смогут научиться управлять своими силами.

Ссылка на предыдущие и альтернативные раздачи: http://rutracker.org/forum/tracker.php?g=foreign_se...;nm=Cloak+Dagger

Сэмпл: http://multi-up.com/1201397

Качество: WEB-DLRip
Формат: AVI
Видео: XviD, 720x400 at 23.976 fps, ~1100 kbps avg
Аудио1: Russian, MP3, 48 kHz, 2 ch, 128 kbps
Аудио2: English, MP3, 48 kHz, 2 ch, 128 kbps
Субтитры: нет
Реклама: аудио (два раза, в начале и конце, по 12 сек.)
Format : AVI
Format/Info : Audio Video Interleave
File size : 468 MiB
Duration : 49 min 15 s
Overall bit rate : 1 329 kb/s
Writing application : Lavf56.30.100

Video
ID : 0
Format : xvid
Codec ID : xvid
Duration : 49 min 15 s
Bit rate : 1 052 kb/s
Width : 720 pixels
Height : 400 pixels
Display aspect ratio : 16:9
Frame rate : 23.976 (24000/1001) FPS
Scan type : Progressive
Bits/(Pixel*Frame) : 0.152
Stream size : 371 MiB (79%)

Audio #1
ID : 1
Format : MPEG Audio
Format version : Version 1
Format profile : Layer 3
Format settings : Joint stereo / MS Stereo
Codec ID : 55
Codec ID/Hint : MP3
Duration : 49 min 15 s
Bit rate mode : Constant
Bit rate : 128 kb/s
Channel(s) : 2 channels
Sampling rate : 48.0 kHz
Compression mode : Lossy
Stream size : 45.1 MiB (10%)
Alignment : Aligned on interleaves
Interleave, duration : 24 ms (0.58 video frame)
Interleave, preload duratio : 24 ms
Title : Gears Media
Writing library : LAME3.99.5ЄЄЄЄЄЄЄЄЄЄ

Audio #2
ID : 2
Format : MPEG Audio
Format version : Version 1
Format profile : Layer 3
Format settings : Joint stereo / MS Stereo
Codec ID : 55
Codec ID/Hint : MP3
Duration : 49 min 15 s
Bit rate mode : Constant
Bit rate : 128 kb/s
Channel(s) : 2 channels
Sampling rate : 48.0 kHz
Compression mode : Lossy
Stream size : 45.1 MiB (10%)
Alignment : Aligned on interleaves
Interleave, duration : 24 ms (0.58 video frame)
Interleave, preload duratio : 24 ms
Writing library : LAME3.99.
<div class="sp-wrap">
<div class="sp-head folded">Внимание! Раздача ведётся путём добавления новых серий</div>
<div class="sp-body">[b]Внимание! Раздача ведётся путём добавления новых серий; при каждом добавлении создаётся новый торрент. Чтобы начать докачку новой серии, пользователям необходимо сделать следующее:
(1) остановить скачивание,
(2) удалить старый торрент у себя из клиента (старые серии удалять не надо),
(3) скачать новый торрент и запустить его у себя в клиенте вместо старого, при этом указать клиенту путь в старую папку куда и должно происходить скачивание новых серий.

Eсли вы уже удалили старые серии, то предотвратить повторную закачку старых серий можно, отжав галочку в соответствующих местах при запуске нового торрента. По возможности, желательно не удалять старые серии как можно дольше чтобы релизёр не столько продолжал раздавать старые серии, а смог сконцентрироваться на новых.</div>
</div>

Трекер:  [ 13-Июн-2018 12:18 ]

  

Скачать .torrent

Размер .torrent файла 19 KB


Размер: 947 MB
Хэш (hash) релиза: 305b020e0db860e6301789b862339a0f46feb360
Подписка на обновления:

Еще никто не оставлял запись к записи скачать торрент Плащ и Кинжал Cloak and Dagger . Будь первым!

!Обратная связь