Sonic Underground | Shameless (US) | Tomb Raider (2018) 720p H264 italian english Ac3-5 1 su...

Скачать через торрент Плащ и Кинжал Cloak and Dagger Фильм бесплатно в хорошем качестве torrent

Скачивайте на UnionPeer.org фильмы через торрент без регистрации. Новинки кино в хорошем качестве через торрент. На UnionPeer.org можно скачать через торрент фильмы 2014 и 2015 годов. Самые новые фильмы.

Скачать торрент Плащ и Кинжал Cloak and Dagger бесплатно через .torrent фильм мультфильм сериал

Статистика раздачи
Размер:  2.18 GB   |    Зарегистрирован:  11 дней   |    .torrent скачан:  17 раз   |   
Раздают:  1  
   
загрузка...
 
Автор Сообщение

Galfimbul

avatar Galfimbul


Плащ и Кинжал / Cloak and Dagger

Год выпуска: 2018
Страна: США
Жанр: Драма, фантастика, приключения
Продолжительность: 00:45:00

Перевод: Профессиональный (двухголосый закадровый) [Gears Media]

Режиссёр: Джина Принс-Байтвуд
В ролях: Дерик Августин, Ноэль Рени Берси, Маркус Клэй, Митч Крафт, Майкл Винсент Донован, Дж.Д. Эвермор, Брайан Майкл Холл, Шон Брэдли Хофер, Оливия Холт, Обри Джозеф и др.

Описание: Молодежный фантастический сериал, созданный по мотивам одноименной серии комиксов Marvel. В качестве одного из продюсеров проекта выступил легендарный Стэн Ли – создатель Человека-паука, Людей Икс, Доктора Стрэнджа, Железного человека, Сорвиголовы, Тора и многих других супергероев. Тэнди Боуэн (Оливия Холт) – красивая девушка, которая промышляет воровством: она мечтает скопить побольше денег, чтобы навсегда сбежать из-под опеки своей эгоистичной матери. Тайрон Джонсон (Обри Джозеф) – замкнутый подросток-афроамериканец, выросший в бедном районе. Случайная встреча на школьной вечеринке изменит жизнь обоих: вскоре Тэнди и Тайрон обнаружат у себя сверхспособности, которыми они пока не в силах управлять. Тэнди способна генерировать световые кинжалы, а Тайрон может перемещаться в пространстве с помощью некой темной энергии. Разгадка удивительных способностей подростков кроется в их общем прошлом – роковой штормовой ночи, когда Тэнди потеряла отца, а Тайрон – брата. Постепенно Тэнди и Тайрон понимают, что им лучше держаться вместе, ведь только так они смогут научиться управлять своими силами.

Ссылка на предыдущие и альтернативные раздачи: http://rutracker.org/forum/tracker.php?g=foreign_se...;nm=Cloak+Dagger

Сэмпл: http://multi-up.com/1201395

Качество: WEB-DL 720p
Формат: MKV
Видео: X264, 1280x720 at 23.976 fps, ~2500 kbps avg
Аудио1: Russian, AC3, 48 kHz, 2 ch, 384 kbps
Аудио2: English, ЕAC3, 48 kHz, 6 ch, 640 kbps
Субтитры: нет
Реклама: аудио (два раза, в начале и конце, по 12 сек.)
Format : Matroska
Format version : Version 4 / Version 2
File size : 1.07 GiB
Duration : 49 min 15 s
Overall bit rate mode : Variable
Overall bit rate : 3 122 kb/s
Encoded date : UTC 2018-06-13 07:48:50
Writing application : mkvmerge v22.0.0 ('At The End Of The World') 64-bit
Writing library : libebml v1.3.5 + libmatroska v1.4.8

Video
ID : 1
Format : AVC
Format/Info : Advanced Video Codec
Format profile : [email protected]
Format settings : CABAC / 5 Ref Frames
Format settings, CABAC : Yes
Format settings, ReFrames : 5 frames
Codec ID : V_MPEG4/ISO/AVC
Duration : 49 min 15 s
Bit rate mode : Variable
Bit rate : 2 096 kb/s
Maximum bit rate : 4 500 kb/s
Width : 1 280 pixels
Height : 720 pixels
Display aspect ratio : 16:9
Frame rate mode : Constant
Frame rate : 23.976 (24000/1001) FPS
Color space : YUV
Chroma subsampling : 4:2:0
Bit depth : 8 bits
Scan type : Progressive
Bits/(Pixel*Frame) : 0.095
Stream size : 738 MiB (67%)
Default : Yes
Forced : No
Color range : Limited
Color primaries : BT.709
Transfer characteristics : BT.709
Matrix coefficients : BT.709

Audio #1
ID : 2
Format : AC-3
Format/Info : Audio Coding 3
Codec ID : A_AC3
Duration : 49 min 15 s
Bit rate mode : Constant
Bit rate : 384 kb/s
Channel(s) : 2 channels
Channel positions : Front: L R
Sampling rate : 48.0 kHz
Frame rate : 31.250 FPS (1536 SPF)
Bit depth : 16 bits
Compression mode : Lossy
Stream size : 135 MiB (12%)
Title : Gears Media
Language : Russian
Service kind : Complete Main
Default : Yes
Forced : Yes

Audio #2
ID : 3
Format : E-AC-3
Format/Info : Enhanced Audio Coding 3
Codec ID : A_EAC3
Duration : 49 min 15 s
Bit rate mode : Constant
Bit rate : 640 kb/s
Channel(s) : 6 channels
Channel positions : Front: L C R, Side: L R, LFE
Sampling rate : 48.0 kHz
Frame rate : 187.500 FPS (256 SPF)
Compression mode : Lossy
Stream size : 225 MiB (21%)
Language : English
Service kind : Complete Main
Default : No
Forced : No
<div class="sp-wrap">
<div class="sp-head folded">Внимание! Раздача ведётся путём добавления новых серий</div>
<div class="sp-body">[b]Внимание! Раздача ведётся путём добавления новых серий; при каждом добавлении создаётся новый торрент. Чтобы начать докачку новой серии, пользователям необходимо сделать следующее:
(1) остановить скачивание,
(2) удалить старый торрент у себя из клиента (старые серии удалять не надо),
(3) скачать новый торрент и запустить его у себя в клиенте вместо старого, при этом указать клиенту путь в старую папку куда и должно происходить скачивание новых серий.

Eсли вы уже удалили старые серии, то предотвратить повторную закачку старых серий можно, отжав галочку в соответствующих местах при запуске нового торрента. По возможности, желательно не удалять старые серии как можно дольше чтобы релизёр не столько продолжал раздавать старые серии, а смог сконцентрироваться на новых.</div>
</div>

Трекер:  [ 13-Июн-2018 11:48 ]

  

Скачать .torrent

Размер .torrent файла 11 KB


Размер: 2.18 GB
Хэш (hash) релиза: a870f8187d6647604168d6258864fccad535ae37
Подписка на обновления:

Еще никто не оставлял запись к записи скачать торрент Плащ и Кинжал Cloak and Dagger . Будь первым!

!Обратная связь