Xena, la guerrière | You Are Wanted | You're The Worst

Скачать через торрент Когти Claws Фильм бесплатно в хорошем качестве torrent

Скачивайте на UnionPeer.org фильмы через торрент без регистрации. Новинки кино в хорошем качестве через торрент. На UnionPeer.org можно скачать через торрент фильмы 2014 и 2015 годов. Самые новые фильмы.

Скачать торрент Когти Claws бесплатно через .torrent фильм мультфильм сериал

Статистика раздачи
Размер:  1.48 GB   |    Зарегистрирован:  11 дней   |    .torrent скачан:  13 раз   |   
Раздают:  1  
   
загрузка...
 
Автор Сообщение

Galfimbul

avatar Galfimbul


Когти / Claws

Год выпуска: 2018
Страна: США
Жанр: драма, комедия, криминал
Продолжительность: 00:45:00

Перевод: Профессиональный (двухголосый закадровый) [Gears Media]

Режиссёр: Ховард Дойч, Николь Кэссел, Триша Брок
В ролях: Ниси Нэш, Кэрри Престон, Джуди Рейес, Карруче Тран, Дженн Лион, Джек Кеси, Кевин О. Ранкин, Джейсон Антун, Хэролд Перрино, Дин Норрис и др.

Описание: Сериал о нескольких работницах маникюрного салона в Южной Флориде, которые решили потеснить представителей противоположного пола в традиционно мужском мире организованной преступности.

Ссылка на предыдущие и альтернативные раздачи: http://rutracker.org/forum/tracker.php?g=foreign_serials&nm=Claws

Сэмпл: http://multi-up.com/1201394

Качество: WEB-DL 720p
Формат: MKV
Видео: X264, 1280x720 at 23.976 fps, ~4000 kbps avg
Аудио1: Russian, AC3, 48 kHz, 2 ch, 384 kbps
Аудио2: English, ЕAC3, 48 kHz, 6 ch, 640 kbps
Субтитры: нет
Реклама: аудио (два раза, в начале и конце, по 12 сек.)
Format : Matroska
Format version : Version 4 / Version 2
File size : 1.48 GiB
Duration : 44 min 7 s
Overall bit rate : 4 815 kb/s
Encoded date : UTC 2018-06-13 07:35:03
Writing application : mkvmerge v22.0.0 ('At The End Of The World') 64-bit
Writing library : libebml v1.3.5 + libmatroska v1.4.8

Video
ID : 1
Format : AVC
Format/Info : Advanced Video Codec
Format profile : [email protected]
Format settings : CABAC / 5 Ref Frames
Format settings, CABAC : Yes
Format settings, ReFrames : 5 frames
Codec ID : V_MPEG4/ISO/AVC
Duration : 44 min 7 s
Bit rate : 3 789 kb/s
Width : 1 280 pixels
Height : 720 pixels
Display aspect ratio : 16:9
Frame rate mode : Constant
Frame rate : 23.976 (24000/1001) FPS
Color space : YUV
Chroma subsampling : 4:2:0
Bit depth : 8 bits
Scan type : Progressive
Bits/(Pixel*Frame) : 0.171
Stream size : 1.17 GiB (79%)
Default : Yes
Forced : No
Color range : Limited
Color primaries : BT.709
Transfer characteristics : BT.709
Matrix coefficients : BT.709

Audio #1
ID : 2
Format : AC-3
Format/Info : Audio Coding 3
Codec ID : A_AC3
Duration : 44 min 7 s
Bit rate mode : Constant
Bit rate : 384 kb/s
Channel(s) : 2 channels
Channel positions : Front: L R
Sampling rate : 48.0 kHz
Frame rate : 31.250 FPS (1536 SPF)
Bit depth : 16 bits
Compression mode : Lossy
Stream size : 121 MiB (8%)
Title : Gears Media
Language : Russian
Service kind : Complete Main
Default : Yes
Forced : Yes

Audio #2
ID : 3
Format : E-AC-3
Format/Info : Enhanced Audio Coding 3
Codec ID : A_EAC3
Duration : 44 min 7 s
Bit rate mode : Constant
Bit rate : 640 kb/s
Channel(s) : 6 channels
Channel positions : Front: L C R, Side: L R, LFE
Sampling rate : 48.0 kHz
Frame rate : 187.500 FPS (256 SPF)
Compression mode : Lossy
Stream size : 202 MiB (13%)
Language : English
Service kind : Complete Main
Default : No
Forced : No
<div class="sp-wrap">
<div class="sp-head folded">Внимание! Раздача ведётся путём добавления новых серий</div>
<div class="sp-body">[b]Внимание! Раздача ведётся путём добавления новых серий; при каждом добавлении создаётся новый торрент. Чтобы начать докачку новой серии, пользователям необходимо сделать следующее:
(1) остановить скачивание,
(2) удалить старый торрент у себя из клиента (старые серии удалять не надо),
(3) скачать новый торрент и запустить его у себя в клиенте вместо старого, при этом указать клиенту путь в старую папку куда и должно происходить скачивание новых серий.

Eсли вы уже удалили старые серии, то предотвратить повторную закачку старых серий можно, отжав галочку в соответствующих местах при запуске нового торрента. По возможности, желательно не удалять старые серии как можно дольше чтобы релизёр не столько продолжал раздавать старые серии, а смог сконцентрироваться на новых.</div>
</div>

Трекер:  [ 13-Июн-2018 11:48 ]

  

Скачать .torrent

Размер .torrent файла 15 KB


Размер: 1.48 GB
Хэш (hash) релиза: 1fce51b829d8dcd058726a943c1c6bd0e7601539
Подписка на обновления:

Еще никто не оставлял запись к записи скачать торрент Когти Claws . Будь первым!

!Обратная связь