Télécharger Garde alternée | Enter Giveaway | [DS] Kirby Super Star Ultra

Скачать через торрент Знакомство Серии: 1-2 из 2 Фильм бесплатно в хорошем качестве torrent

Скачивайте на UnionPeer.org фильмы через торрент без регистрации. Новинки кино в хорошем качестве через торрент. На UnionPeer.org можно скачать через торрент фильмы 2014 и 2015 годов. Самые новые фильмы.

Скачать торрент Знакомство Серии: 1-2 из 2 бесплатно через .torrent фильм мультфильм сериал

Статистика раздачи
Размер:  1.23 GB   |    Зарегистрирован:  11 дней   |    .torrent скачан:  54 раза   |   
Раздают:  1  
   
загрузка...
 
Автор Сообщение

Galfimbul

avatar Galfimbul


Знакомство

Год выпуска: 2017
Производство: Мотор фильм студия
Жанр: детектив, триллер
Продолжительность: ~00:46:00 серия
Субтитры: нет

Режиссёр: Илья Максимов

В ролях: Павел Баршак, Сергей Маковецкий, Агния Кузнецова, Владимир Епифанцев, Яна Середа, Евгений Буслаков, Екатерина Вуличенко, Дмитрий Ермак
Описание: Коля — молодой эгоист, который уже год как бросил работу, чтобы «найти себя», но вместо реального поиска он погружен в виртуальное общение в социальных сетях. Единственный человек, с которым Коля реально, а не виртуально общается и которому доверяет — его старший брат — художник, любимчик отца и любимец женщин. Но в одно ничем не примечательное утро Коля находит брата мёртвым. Полиция считает, что это самоубийство. Отец, находящийся с Колей не в лучших отношениях, уверен, что сына убили.
Несмотря на сложные отношения с отцом и оторванность от реального мира, Коля решает начать собственное расследование и во чтобы то ни стало найти истинного убийцу брата..

Реклама: Нет.

Кинопоиск

Sample

Качество: WEBRip
Формат: AVI
Видео кодек: XviD
Аудио кодек: AC3
Видео: 720x400 (1.80:1), 25 fps, XviD build 73 ~1700 kbps avg, 0.236 bit/pixel
Аудио: 48.0 kHz, AC3 Dolby Digital, 2/0 (L,R) ch, ~ 192 kbps
General
Complete name : D:\Знакомство 2017 WEBRip\Znakomstvo.(01.seriya.iz.02).2017.avi
Format : AVI
Format/Info : Audio Video Interleave
File size : 624 MiB
Duration : 45 min 59 s
Overall bit rate : 1 897 kb/s
Writing application : VirtualDubMod 1.5.10.3 | www.virtualdub-fr.org || (build 2550/release)
Writing library : VirtualDubMod build 2550/release

Video
ID : 0
Format : MPEG-4 Visual
Format profile : Advanced [email protected]
Format settings : BVOP2
Format settings, BVOP : 2
Format settings, QPel : No
Format settings, GMC : No warppoints
Format settings, Matrix : Default (MPEG)
Codec ID : XVID
Codec ID/Hint : XviD
Duration : 45 min 59 s
Bit rate : 1 696 kb/s
Width : 720 pixels
Height : 400 pixels
Display aspect ratio : 16:9
Frame rate : 25.000 FPS
Color space : YUV
Chroma subsampling : 4:2:0
Bit depth : 8 bits
Scan type : Progressive
Compression mode : Lossy
Bits/(Pixel*Frame) : 0.236
Stream size : 558 MiB (89%)
Writing library : XviD 73

Audio
ID : 1
Format : AC-3
Format/Info : Audio Coding 3
Codec ID : 2000
Duration : 45 min 59 s
Bit rate mode : Constant
Bit rate : 192 kb/s
Channel(s) : 2 channels
Channel positions : Front: L R
Sampling rate : 48.0 kHz
Frame rate : 31.250 FPS (1536 SPF)
Bit depth : 16 bits
Compression mode : Lossy
Stream size : 63.2 MiB (10%)
Alignment : Split accross interleaves
Interleave, duration : 40 ms (1.00 video frame)
Interleave, preload duratio : 500 ms
Service kind : Complete Main


Трекер:  [ 13-Июн-2018 02:12 ]

  

Скачать .torrent

Размер .torrent файла 13 KB


Размер: 1.23 GB
Хэш (hash) релиза: 025167e68df21699f27ca87b44bc6d4c57e81f63
Подписка на обновления:

Торренты, похожие на Знакомство Серии: 1-2 из 2 скачать торрент

Форум Название Автор Размер S L Добавлен
Российские сериалы ·%· Знакомство / Серии: 1-2 из 2 (Илья Максимов) [2017, детектив, триллер, WEBRip-AVC] Galfimbul 10528577581004 MB 0 0 1528891940

15:12

13-Июн-18

Российские сериалы ·· Знакомство / Серии: 1-2 из 2 (Илья Максимов) [2017, детектив, триллер, WEBRip 1080p] Galfimbul 42674168193.97 GB 0 0 1528841550

01:12

13-Июн-18

Российские сериалы ·· Знакомство / Серии: 1-2 из 2 (Илья Максимов) [2017,детектив, триллер, SATRip-AVC] aleksan55 12561581331.17 GB 0 0 1528824491

20:28

12-Июн-18

Еще никто не оставлял запись к записи скачать торрент Знакомство Серии: 1-2 из 2 . Будь первым!

!Обратная связь