Nighty Night Circus v4.2 | L'Opinione 02.09.2011 | http://www.filmweb.pl/film/Medium-2004-181713

Скачать через торрент Акт мести Acts of Violence бесплатно русская версия torrent активатор

Статистика раздачи
Размер:  3.13 GB   |    Зарегистрирован:  12 дней   |    .torrent скачан:  36 раз   |   
Раздают:  1  
   
загрузка...
 
Автор Сообщение

Galfimbul

avatar Galfimbul


Акт мести / Acts of Violence

(Extended Cut)

-

4.778 / 10 5.10 / 10
Год выпуска: 2018
Страна: Канада
Жанр: Боевик, криминал
Продолжительность: 01:32:30

Перевод: Многоголосый закадровый (iTunes)
Оригинальная аудиодорожка: Есть
Cубтитры: Нет
Режиссёр: Бретт Доноху
Сценарий: Nicolas Aaron Mezzanatto
Продюсер: Энтони Дж. Калли, Рэндолл Эмметт, Джордж Фурла
Оператор: Эдд Лукас
Композитор: Джеймс Т. Сейл
Художник: Кристен Адамс, Мелани Мэрилл, Стефани Пауэрс
Монтаж: Райан Итон, Фредерик Уорделл
В ролях: Брюс Уиллис, Коул Хаузер, Шон Эшмор, Эштон Холмс, Мелисса Болона, Шон Броснан, София Буш, Майк Эппс, Тиффани Броувер, Дженна Б. Келли

Мировая премьера: 12 января 2018

Описание: Чтобы спасти невесту, которая попала в лапы торговцев людьми, Роману придётся вспомнить боевые навыки и объединить усилия с бывшими сослуживцами и полицейским, расследующим подобные дела.
Качество исходника: BDRemux (BlueBird)
Качество: BDRip
Тип: HD (720p)
Контейнер: M4V
Видео: H.264, 1280x536, 2.40:1, 3 500 Kbps, 23.976 (24000/1001) fps

Аудио 1: Русский/Многоголосый закадровый (iTunes), AAC / 2.0 / 160 Kbps / 48.0 KHz
Аудио 2: Английский/Оригинальная дорожка , AAC / 2.0 / 160 Kbps / 48.0 KHz
Аудио 3: Русский/Многоголосый закадровый (iTunes), AC-3 / 5.1 / 384 Kbps / 48.0 KHz
Аудио 4: Английский/Оригинальная дорожка , AC-3 / 5.1 / 640 Kbps / 48.0 KHz
Sort Name: Acts of Violence
XID: Apple:vendor_id:2018-1043163
contentID: 1325801397
Copyright: © 2017 GEORGIA FILM FUND 57, LLC
Screenwriters: Nicolas Aaron Mezzanatto
Producers: Энтони Дж. Калли, Рэндолл Эмметт, Джордж Фурла
Director: Бретт Доноху
Cast: Брюс Уиллис, Коул Хаузер, Шон Эшмор, Эштон Холмс, Мелисса Болона, Шон Броснан, София Буш, Майк Эппс, Тиффани Броувер, Дженна Б. Келли
Studio: Lionsgate Premiere
Rating Annotation: Rated R for violence, language, throughout, sexuality/nudity and drug material.
Rating: 5
Long Description: Чтобы спасти невесту, которая попала в лапы торговцев людьми, Роману придётся вспомнить боевые навыки и объединить усилия с бывшими сослуживцами и полицейским, расследующим подобные дела.
Description: Чтобы спасти невесту, которая попала в лапы торговцев людьми, Роману придётся вспомнить боевые навыки и объединить усилия с бывшими сослуживцами и полицейским, расследующим подобные дела.
Release Date: 2018-01-01T08:00:00Z
Genre: Action & Adventure
Artist: Brett Donowho
Name: Acts of Violence
General
Complete name                            : /Users/imac/HandBrake/Acts of Violence (720p HD).m4v
Format                                   : MPEG-4
Codec ID                                 : M4V  (M4V /M4A /mp42/isom)
File size                                : 3.13 GiB
Duration                                 : 1h 32mn
Overall bit rate mode                    : Variable
Overall bit rate                         : 4 846 Kbps
Movie name                               : Acts of Violence
Performer                                : Brett Donowho
Director                                 : Бретт Доноху
Actor                                    : Брюс Уиллис / Коул Хаузер / Шон Эшмор / Эштон Холмс / Мелисса Болона / Шон Броснан / София Буш / Майк Эппс / Тиффани Броувер / Дженна Б. Келли
Screenplay by                            : Nicolas Aaron Mezzanatto
Producer                                 : Энтони Дж. Калли / Рэндолл Эмметт / Джордж Фурла
Production studio                        : Lionsgate Premiere
Genre                                    : Action & Adventure
ContentType                              : Short Film
Description                              : Чтобы спасти невесту, которая попала в лапы торговцев людьми, Роману придётся вспомнить боевые навыки и объединить усилия с бывшими сослуживцами и полицейским, расследующим подобные дела.
Recorded date                            : UTC 2018-01-01 08:00:00
Encoded date                             : UTC 2018-06-12 19:49:16
Tagged date                              : UTC 2018-06-12 19:55:20
Copyright                                : © 2017 GEORGIA FILM FUND 57, LLC
Cover                                    : Yes
Rating                                   : None
Title/Sort                               : Acts of Violence
LongDescription                          : Чтобы спасти невесту, которая попала в лапы торговцев людьми, Роману придётся вспомнить боевые навыки и объединить усилия с бывшими сослуживцами и полицейским, расследующим подобные дела.
HDVideo                                  : Yes
AppleStoreCatalogID                      : 1325801397
Vendor                                   : Apple:vendor_id:2018-1043163
ContentRating                            : mpaa|R|400|Rated R for violence, language, throughout, sexuality/nudity and drug material.

Video #1
ID                                       : 1
Format                                   : AVC
Format/Info                              : Advanced Video Codec
Format profile                           : [email protected]
Format settings                          : 3 Ref Frames
Format settings, CABAC                   : No
Format settings, ReFrames                : 3 frames
Codec ID                                 : avc1
Codec ID/Info                            : Advanced Video Coding
Duration                                 : 1h 32mn
Source duration                          : 1h 32mn
Bit rate                                 : 3 500 Kbps
Width                                    : 1 280 pixels
Height                                   : 536 pixels
Display aspect ratio                     : 2.40:1
Frame rate mode                          : Variable
Frame rate                               : 23.976 (24000/1001) fps
Minimum frame rate                       : 23.974 fps
Maximum frame rate                       : 23.981 fps
Color space                              : YUV
Chroma subsampling                       : 4:2:0
Bit depth                                : 8 bits
Scan type                                : Progressive
Bits/(Pixel*Frame)                       : 0.213
Stream size                              : 2.26 GiB (72%)
Source stream size                       : 2.26 GiB (72%)
Title                                    : Main Program
Writing library                          : x264 core 155 r2893 b00bcaf
Encoding settings                        : cabac=0 / ref=3 / deblock=1:-3:-3 / analyse=0x3:0x113 / me=umh / subme=9 / psy=1 / psy_rd=1.00:0.15 / mixed_ref=1 / me_range=32 / chroma_me=1 / trellis=0 / 8x8dct=1 / cqm=0 / deadzone=21,11 / fast_pskip=0 / chroma_qp_offset=-2 / threads=17 / lookahead_threads=1 / sliced_threads=0 / nr=0 / decimate=0 / interlaced=0 / bluray_compat=0 / constrained_intra=0 / bframes=3 / b_pyramid=0 / b_adapt=2 / b_bias=0 / direct=1 / weightb=0 / open_gop=0 / weightp=0 / keyint=240 / keyint_min=24 / scenecut=40 / intra_refresh=0 / rc_lookahead=40 / rc=2pass / mbtree=1 / bitrate=3500 / ratetol=1.0 / qcomp=0.65 / qpmin=0 / qpmax=69 / qpstep=4 / cplxblur=20.0 / qblur=0.5 / vbv_maxrate=9500 / vbv_bufsize=9500 / nal_hrd=none / filler=0 / ip_ratio=1.40 / aq=1:1.10
Language                                 : English
Encoded date                             : UTC 2018-06-12 19:49:16
Tagged date                              : UTC 2018-06-12 19:49:22
Color range                              : Limited
Color primaries                          : BT.709
Transfer characteristics                 : BT.709
Matrix coefficients                      : BT.709
Menus                                    : 6,7

Video #2
ID                                       : 7
Format                                   : JPEG
Codec ID                                 : jpeg
Duration                                 : 1h 32mn
Bit rate mode                            : Variable
Bit rate                                 : 695 bps
Width                                    : 640 pixels
Height                                   : 268 pixels
Display aspect ratio                     : 2.40:1
Frame rate mode                          : Variable
Frame rate                               : 0.003 fps
Minimum frame rate                       : 0.001 fps
Maximum frame rate                       : 0.007 fps
Color space                              : YUV
Chroma subsampling                       : 4:2:0
Bit depth                                : 8 bits
Compression mode                         : Lossy
Bits/(Pixel*Frame)                       : 1.351
Stream size                              : 452 KiB (0%)
Title                                    : Chapter Images
Language                                 : English
Default                                  : No
Encoded date                             : UTC 2018-06-12 19:50:11
Tagged date                              : UTC 2018-06-12 19:50:11
Menu For                                 : 1
ColorSpace_ICC                           : RGB

Audio #1
ID                                       : 2
Format                                   : AAC
Format/Info                              : Advanced Audio Codec
Format profile                           : LC
Codec ID                                 : mp4a-40-2
Duration                                 : 1h 32mn
Source duration                          : 1h 32mn
Bit rate mode                            : Variable
Bit rate                                 : 157 Kbps
Maximum bit rate                         : 240 Kbps
Channel(s)                               : 2 channels
Channel positions                        : Front: L R
Sampling rate                            : 48.0 KHz
Frame rate                               : 46.875 fps (1024 SPF)
Compression mode                         : Lossy
Stream size                              : 104 MiB (3%)
Source stream size                       : 104 MiB (3%)
Title                                    : Russian Stereo
Language                                 : Russian
Default                                  : Yes
Alternate group                          : 1
Encoded date                             : UTC 2018-06-12 19:49:16
Tagged date                              : UTC 2018-06-12 19:50:07
Fallback From                            : 4

Audio #2
ID                                       : 3
Format                                   : AAC
Format/Info                              : Advanced Audio Codec
Format profile                           : LC
Codec ID                                 : mp4a-40-2
Duration                                 : 1h 32mn
Source duration                          : 1h 32mn
Bit rate mode                            : Variable
Bit rate                                 : 157 Kbps
Maximum bit rate                         : 255 Kbps
Channel(s)                               : 2 channels
Channel positions                        : Front: L R
Sampling rate                            : 48.0 KHz
Frame rate                               : 46.875 fps (1024 SPF)
Compression mode                         : Lossy
Stream size                              : 104 MiB (3%)
Source stream size                       : 104 MiB (3%)
Title                                    : English Stereo
Language                                 : English
Default                                  : No
Alternate group                          : 1
Encoded date                             : UTC 2018-06-12 19:49:16
Tagged date                              : UTC 2018-06-12 19:50:07
Fallback From                            : 5

Audio #3
ID                                       : 4
Format                                   : AC-3
Format/Info                              : Audio Coding 3
Codec ID                                 : ac-3
Duration                                 : 1h 32mn
Bit rate mode                            : Constant
Bit rate                                 : 384 Kbps
Channel(s)                               : 6 channels
Channel positions                        : Front: L C R, Side: L R, LFE
Sampling rate                            : 48.0 KHz
Frame rate                               : 31.250 fps (1536 SPF)
Bit depth                                : 16 bits
Compression mode                         : Lossy
Stream size                              : 254 MiB (8%)
Title                                    : Russian DD 5.1
Language                                 : Russian
Service kind                             : Complete Main
Default                                  : Inherited From: 2
Alternate group                          : 1
Encoded date                             : UTC 2018-06-12 19:49:16
Tagged date                              : UTC 2018-06-12 19:50:07
Fallback To                              : 2

Audio #4
ID                                       : 5
Format                                   : AC-3
Format/Info                              : Audio Coding 3
Codec ID                                 : ac-3
Duration                                 : 1h 32mn
Bit rate mode                            : Constant
Bit rate                                 : 640 Kbps
Channel(s)                               : 6 channels
Channel positions                        : Front: L C R, Side: L R, LFE
Sampling rate                            : 48.0 KHz
Frame rate                               : 31.250 fps (1536 SPF)
Bit depth                                : 16 bits
Compression mode                         : Lossy
Stream size                              : 423 MiB (13%)
Title                                    : English DD 5.1
Language                                 : English
Service kind                             : Complete Main
Default                                  : No
Alternate group                          : 1
Encoded date                             : UTC 2018-06-12 19:49:16
Tagged date                              : UTC 2018-06-12 19:50:07
Fallback To                              : 3

Menu #1
00:00:00.000                             : 00:00:00.000
00:05:06.765                             : 00:05:06.765
00:10:30.547                             : 00:10:30.463
00:14:41.464                             : 00:14:41.380
00:19:55.569                             : 00:19:55.569
00:26:09.109                             : 00:26:09.067
00:34:49.421                             : 00:34:49.421
00:38:44.197                             : 00:38:44.113
00:42:26.127                             : 00:42:26.127
00:49:25.379                             : 00:49:25.296
00:54:08.328                             : 00:54:08.245
01:00:58.029                             : 01:00:57.946
01:07:16.491                             : 01:07:16.407
01:11:36.793                             : 01:11:36.709
01:18:08.017                             : 01:18:07.975
01:20:39.126                             : 01:20:39.043

Menu #2
ID                                       : 6
Codec ID                                 : text
Duration                                 : 1h 32mn
Language                                 : English
Encoded date                             : UTC 2018-06-12 19:50:07
Tagged date                              : UTC 2018-06-12 19:50:07
Bit rate mode                            : CBR
Menu For                                 : 1
00:00:00.000                             : 00:00:00.000
00:05:06.765                             : 00:05:06.765
00:10:30.547                             : 00:10:30.463
00:14:41.464                             : 00:14:41.380
00:19:55.569                             : 00:19:55.569
00:26:09.109                             : 00:26:09.067
00:34:49.421                             : 00:34:49.421
00:38:44.197                             : 00:38:44.113
00:42:26.127                             : 00:42:26.127
00:49:25.379                             : 00:49:25.296
00:54:08.328                             : 00:54:08.245
01:00:58.029                             : 01:00:57.946
01:07:16.491                             : 01:07:16.407
01:11:36.793                             : 01:11:36.709
01:18:08.017                             : 01:18:07.975
01:20:39.126                             : 01:20:39.043
x264 [info]: frame I:1590  Avg QP:16.40  size: 84180
x264 [info]: frame P:48688 Avg QP:19.28  size: 30587
x264 [info]: frame B:82791 Avg QP:20.57  size:  9705
x264 [info]: consecutive B-frames:  4.5% 25.2% 36.9% 33.4%
x264 [info]: mb I  I16..4:  9.6% 59.2% 31.2%
x264 [info]: mb P  I16..4:  2.6%  7.0%  2.9%  P16..4: 46.0% 24.1%  9.8%  0.0%  0.0%    skip: 7.6%
x264 [info]: mb B  I16..4:  0.3%  0.8%  0.3%  B16..8: 47.6% 11.1%  1.7%  direct: 4.9%  skip:33.4%  L0:42.0% L1:51.9% BI: 6.1%
x264 [info]: 8x8 transform intra:56.6% inter:49.2%
x264 [info]: coded y,uvDC,uvAC intra: 77.0% 70.7% 39.5% inter: 28.7% 18.8% 5.7%
x264 [info]: i16 v,h,dc,p: 60% 13%  7% 21%
x264 [info]: i8 v,h,dc,ddl,ddr,vr,hd,vl,hu: 12%  6%  6% 11% 16% 15% 13% 11%  9%
x264 [info]: i4 v,h,dc,ddl,ddr,vr,hd,vl,hu: 11%  7%  4% 12% 17% 16% 14% 11%  8%
x264 [info]: i8c dc,h,v,p: 49% 18% 22% 11%
x264 [info]: ref P L0: 73.1% 16.1% 10.8%
x264 [info]: ref B L0: 81.7% 18.3%
x264 [info]: kb/s:3497.69

Релиз подготовлен для просмотра на Apple TV, iPad, iPhone, iPod Touch.
Для просмотра данного релиза на компьютере с ОС Windows рекомендуется использовать VLC media player

Трекер:  [ 12-Июн-2018 23:06 ]

  

Скачать .torrent

Размер .torrent файла 31 KB


Размер: 3.13 GB
Хэш (hash) релиза: 2e9b54519a616a83156441802ee4de19a20562b7

Еще никто не оставлял запись к записи скачать торрент Акт мести Acts of Violence . Будь первым!

!Обратная связь