Bruce Greenwood | Season 8 Episode 21 The Communication Deterioration | Damon Wayans Jr.

Скачать через торрент Ранчо Ranczo Фильм бесплатно в хорошем качестве torrent

Скачивайте на UnionPeer.org фильмы через торрент без регистрации. Новинки кино в хорошем качестве через торрент. На UnionPeer.org можно скачать через торрент фильмы 2014 и 2015 годов. Самые новые фильмы.

Скачать торрент Ранчо Ranczo бесплатно через .torrent фильм мультфильм сериал

Статистика раздачи
Размер:  43.23 GB   |    Зарегистрирован:  12 дней   |    .torrent скачан:  28 раз   |   
Раздают:  1  
   
загрузка...
 
Автор Сообщение

Galfimbul

avatar Galfimbul


Ранчо / Ranczo

Год выпуска: 2006-2016
Сезон: 1-10
Страна: Польша
Жанр: Комедия
Продолжительность: 49

Перевод: Отсутствует

Режиссёр: Войцех Адамчик, Ева Анджеевска, Марчин Шчербик

В ролях: Павел Круликовски
Цезари Зак
Илона Островска
Пётр Преговски
Марта Липиньска
Bogdan Kalus
Сильвестр Мачеевский
Виолетта Арлак
Франчишек Печка
Артур Барчиш

Описание: Смешная история одной польской деревни )))

Сэмпл: http://sendfile.su/1425151

Качество: WEBRip
Формат: AVI
Видео: Video #0 : MPEG-4 Visual at 825 Kb/s Aspect : 608 x 336 at 25.000 fps
Аудио: Audio #0 : MPEG Audio at 128 Kb/s Infos : 2 kanały, 48,0 KHz
Субтитры: нет

Реклама:
нет
Общее
Полное имя : D:\------\RANCZO\Ranczo 01\Ranczo S01E04.avi
Формат : AVI
Формат/Информация : Audio Video Interleave
Размер файла : 340 Мбайт
Продолжительность : 48 м. 45 с.
Общий поток : 976 Кбит/сек
Программа кодирования : Lavf54.63.104

Видео
Идентификатор : 0
Формат : xvid
Идентификатор кодека : xvid
Продолжительность : 48 м. 45 с.
Битрейт : 835 Кбит/сек
Ширина : 608 пикселей
Высота : 336 пикселей
Соотношение сторон : 16:9
Частота кадров : 25,000 кадров/сек
Тип развёртки : Прогрессивная
Бит/(Пиксели*Кадры) : 0.163
Размер потока : 291 Мбайт (86%)

Аудио
Идентификатор : 1
Формат : MPEG Audio
Версия формата : Version 1
Профиль формата : Layer 3
Настройки формата : Joint stereo / MS Stereo
Идентификатор кодека : 55
Идентификатор кодека/Подсказка : MP3
Продолжительность : 48 м. 45 с.
Вид битрейта : Постоянный
Битрейт : 128 Кбит/сек
Каналы : 2 канала
Частота : 48,0 КГц
Метод сжатия : С потерями
Размер потока : 44,6 Мбайт (13%)
Выравнивание : Соединение по промежуткам
Продолжительность промежутка : 24 мс. (0,60 видеокадр)
Предыдущие и альтернативные раздачи

Трекер:  [ 12-Июн-2018 21:18 ]

  

Скачать .torrent

Размер .torrent файла 230 KB


Размер: 43.23 GB
Хэш (hash) релиза: d66832112d435c78b7991cb2cdc071227a61b2a4
Подписка на обновления:

Еще никто не оставлял запись к записи скачать торрент Ранчо Ranczo . Будь первым!

!Обратная связь