Charlayne Woodard | Devilman Lady | Assen Blatechki

Скачать через торрент музыку бесплатно без регистрации torrent

Статистика раздачи
Размер:  193 MB   |    Зарегистрирован:  10 дней   |    .torrent скачан:  19 раз   |   
Раздают:  1  
   
загрузка...
 
Автор Сообщение

Galfimbul

avatar Galfimbul


define.human - 60Hz Hymns


• Жанр: Rhythmic Noise | Industrial
• Носитель: WEB
• Год издания: 2018
• Издатель (лейбл) Crunch Pod
• Страна исполнителя (группы): USA
• Аудиокодек: FLAC (*.flac)
• Тип рипа: tracks
• Продолжительность: 00:25:53
• Источник (релизер): Scorpio666 ®
• WEB релиз: bandcamp
• Наличие сканов: front



➢ 01 - e▲rwi┼┼nešš (00:04:01)
➢ 02 - Frequency 1117 Part 1 (00:04:28)
➢ 03 - Synthetic Hymn (00:04:44)
➢ 04 - Frequency 1117 Part 2 (00:04:49)
➢ 05 - ◀◀Escape■▶Sedate▶▶ (00:03:24)
➢ 06 - Synthetic Hymn (Dead Fe†us Remix) (00:04:25)


-----------------------

DON'T MODIFY THIS FILE

-----------------------

PERFORMER: auCDtect Task Manager, ver. 1.6.0 RC1 build 1.6.0.1Copyright (c) 2008-2010 y-soft. All rights reservedhttp://y-soft.org

ANALYZER: auCDtect: CD records authenticity detector, version 0.8.2Copyright (c) 2004 Oleg Berngardt. All rights reserved.Copyright (c) 2004 Alexander Djourik. All rights reserved.

FILE: 06 - Synthetic Hymn (Dead Fe†us Remix).flac Size: 32619629 Hash: 4035D2A1532D9829B707964580CE9D84 Accuracy: -m0 Conclusion: CDDA 100% Signature: C4961832080D339C90F14D86B9A355A097E81047FILE: 04 - Frequency 1117 Part 2.flac Size: 35457241 Hash: 5E1BE1CF57AFEDC1F70F3E72B2EDBC61 Accuracy: -m0 Conclusion: CDDA 100% Signature: B578FEFE289C053C61D92CC8C0F269A5EA7A0967FILE: 03 - Synthetic Hymn.flac Size: 39479520 Hash: 2DF6820A4DE16012FBB7921CC7D27FD5 Accuracy: -m0 Conclusion: CDDA 100% Signature: BD55728C5119D06C08ED47E3BAC80BD4F786E286FILE: 02 - Frequency 1117 Part 1.flac Size: 38009850 Hash: F7263603CD5123A0805D8A40EE2776EF Accuracy: -m0 Conclusion: CDDA 100% Signature: CEB2A7ABAC96F64DC9A295F3F1C6E198FC7CFE60
foobar2000 1.3.17 / Замер динамического диапазона (DR) 1.1.1
Дата отчёта: 2018-06-12 20:33:28

--------------------------------------------------------------------------------
Анализ: define.human / 60Hz Hymns
--------------------------------------------------------------------------------

DR Пики RMS Продолжительность трека
--------------------------------------------------------------------------------
DR8 -0.10 дБ -9.05 дБ 4:02 01/6-e▲rwi┼┼nešš
DR6 -0.16 дБ -7.66 дБ 4:28 02/6-Frequency 1117 Part 1
DR5 -0.06 дБ -7.60 дБ 4:45 03/6-Synthetic Hymn
DR8 -0.06 дБ -10.07 дБ 4:49 04/6-Frequency 1117 Part 2
DR6 -0.06 дБ -7.72 дБ 3:24 05/6-◀◀Escape■▶Sedate▶▶
DR5 0.00 дБ -6.19 дБ 4:26 06/6-Synthetic Hymn (Dead Fe†us Remix)
--------------------------------------------------------------------------------

Количество треков: 6
Реальные значения DR: DR6

Частота: 44100 Гц
Каналов: 2
Разрядность: 16
Битрейт: 981 кбит/с
Кодек: FLAC
================================================================================




Трекер:  [ 12-Июн-2018 21:01 ]

  

Скачать .torrent

Размер .torrent файла 16 KB


Размер: 193 MB
Хэш (hash) релиза: a05ca164558e4dc25ff130affcb1907e9eaabf61

Еще никто не оставлял запись к записи скачать торрент . Будь первым!

!Обратная связь