The Devil's Doorway (2018) RATING 7.8 / 10 QUALITY | Mike Epps | Flores En El Atico BluRayRip AC3 5.1

Скачать через торрент [ATV3] Акт мести Acts of Violence бесплатно русская версия torrent активатор

Статистика раздачи
Размер:  6.02 GB   |    Зарегистрирован:  2 месяца 6 дней   |    .torrent скачан:  22 раза   |   
Раздают:  1  
   
загрузка...
 
Автор Сообщение

Galfimbul

avatar Galfimbul


Акт мести / Acts of Violence

(Extended Cut)

-

4.778 / 10 5.10 / 10
Год выпуска: 2018
Страна: Канада
Жанр: Боевик, криминал
Продолжительность: 01:32:30

Перевод: Многоголосый закадровый (iTunes)
Оригинальная аудиодорожка: Есть
Cубтитры: Нет
Режиссёр: Бретт Доноху
Сценарий: Nicolas Aaron Mezzanatto
Продюсер: Энтони Дж. Калли, Рэндолл Эмметт, Джордж Фурла
Оператор: Эдд Лукас
Композитор: Джеймс Т. Сейл
Художник: Кристен Адамс, Мелани Мэрилл, Стефани Пауэрс
Монтаж: Райан Итон, Фредерик Уорделл
В ролях: Брюс Уиллис, Коул Хаузер, Шон Эшмор, Эштон Холмс, Мелисса Болона, Шон Броснан, София Буш, Майк Эппс, Тиффани Броувер, Дженна Б. Келли

Мировая премьера: 12 января 2018

Описание: Чтобы спасти невесту, которая попала в лапы торговцев людьми, Роману придётся вспомнить боевые навыки и объединить усилия с бывшими сослуживцами и полицейским, расследующим подобные дела.
Качество исходника: BDRemux (BlueBird)
Качество: BDRip
Тип: HD (1080p)
Контейнер: M4V
Видео: H.264, 1920x800, 2.40:1, 8 000 Kbps, 23.976 (24000/1001) fps

Аудио 1: Русский/Многоголосый закадровый (iTunes), AAC / 2.0 / 160 Kbps / 48.0 KHz
Аудио 2: Английский/Оригинальная дорожка , AAC / 2.0 / 160 Kbps / 48.0 KHz
Аудио 3: Русский/Многоголосый закадровый (iTunes), AC-3 / 5.1 / 384 Kbps / 48.0 KHz
Аудио 4: Английский/Оригинальная дорожка , AC-3 / 5.1 / 640 Kbps / 48.0 KHz
Sort Name: Acts of Violence
XID: Apple:vendor_id:2018-1043163
contentID: 1325801397
Copyright: © 2017 GEORGIA FILM FUND 57, LLC
Screenwriters: Nicolas Aaron Mezzanatto
Producers: Энтони Дж. Калли, Рэндолл Эмметт, Джордж Фурла
Director: Бретт Доноху
Cast: Брюс Уиллис, Коул Хаузер, Шон Эшмор, Эштон Холмс, Мелисса Болона, Шон Броснан, София Буш, Майк Эппс, Тиффани Броувер, Дженна Б. Келли
Studio: Lionsgate Premiere
Rating Annotation: Rated R for violence, language, throughout, sexuality/nudity and drug material.
Rating: 5
Long Description: Чтобы спасти невесту, которая попала в лапы торговцев людьми, Роману придётся вспомнить боевые навыки и объединить усилия с бывшими сослуживцами и полицейским, расследующим подобные дела.
Description: Чтобы спасти невесту, которая попала в лапы торговцев людьми, Роману придётся вспомнить боевые навыки и объединить усилия с бывшими сослуживцами и полицейским, расследующим подобные дела.
Release Date: 2018-01-01T08:00:00Z
Genre: Action & Adventure
Artist: Brett Donowho
Name: Acts of Violence
General
Complete name                            : /Users/imac/HandBrake/Acts of Violence (1080p HD).m4v
Format                                   : MPEG-4
Codec ID                                 : M4V  (M4V /M4A /mp42/isom)
File size                                : 6.02 GiB
Duration                                 : 1h 32mn
Overall bit rate mode                    : Variable
Overall bit rate                         : 9 324 Kbps
Movie name                               : Acts of Violence
Performer                                : Brett Donowho
Director                                 : Бретт Доноху
Actor                                    : Брюс Уиллис / Коул Хаузер / Шон Эшмор / Эштон Холмс / Мелисса Болона / Шон Броснан / София Буш / Майк Эппс / Тиффани Броувер / Дженна Б. Келли
Screenplay by                            : Nicolas Aaron Mezzanatto
Producer                                 : Энтони Дж. Калли / Рэндолл Эмметт / Джордж Фурла
Production studio                        : Lionsgate Premiere
Genre                                    : Action & Adventure
ContentType                              : Short Film
Description                              : Чтобы спасти невесту, которая попала в лапы торговцев людьми, Роману придётся вспомнить боевые навыки и объединить усилия с бывшими сослуживцами и полицейским, расследующим подобные дела.
Recorded date                            : UTC 2018-01-01 08:00:00
Encoded date                             : UTC 2018-06-12 12:17:10
Tagged date                              : UTC 2018-06-12 12:22:26
Copyright                                : © 2017 GEORGIA FILM FUND 57, LLC
Cover                                    : Yes
Rating                                   : None
Title/Sort                               : Acts of Violence
LongDescription                          : Чтобы спасти невесту, которая попала в лапы торговцев людьми, Роману придётся вспомнить боевые навыки и объединить усилия с бывшими сослуживцами и полицейским, расследующим подобные дела.
AppleStoreCatalogID                      : 1325801397
Vendor                                   : Apple:vendor_id:2018-1043163
ContentRating                            : mpaa|R|400|Rated R for violence, language, throughout, sexuality/nudity and drug material.

Video #1
ID                                       : 1
Format                                   : AVC
Format/Info                              : Advanced Video Codec
Format profile                           : [email protected]
Format settings                          : CABAC / 4 Ref Frames
Format settings, CABAC                   : Yes
Format settings, ReFrames                : 4 frames
Codec ID                                 : avc1
Codec ID/Info                            : Advanced Video Coding
Duration                                 : 1h 32mn
Source duration                          : 1h 32mn
Bit rate                                 : 8 000 Kbps
Width                                    : 1 920 pixels
Height                                   : 800 pixels
Display aspect ratio                     : 2.40:1
Frame rate mode                          : Variable
Frame rate                               : 23.976 (24000/1001) fps
Minimum frame rate                       : 23.974 fps
Maximum frame rate                       : 23.981 fps
Color space                              : YUV
Chroma subsampling                       : 4:2:0
Bit depth                                : 8 bits
Scan type                                : Progressive
Bits/(Pixel*Frame)                       : 0.217
Stream size                              : 5.15 GiB (86%)
Source stream size                       : 5.15 GiB (86%)
Title                                    : Main Program
Writing library                          : x264 core 155 r2893 b00bcaf
Encoding settings                        : cabac=1 / ref=4 / deblock=1:-2:-2 / analyse=0x3:0x133 / me=umh / subme=10 / psy=1 / psy_rd=1.00:0.15 / mixed_ref=1 / me_range=32 / chroma_me=1 / trellis=2 / 8x8dct=1 / cqm=0 / deadzone=21,11 / fast_pskip=1 / chroma_qp_offset=-3 / threads=25 / lookahead_threads=6 / sliced_threads=0 / nr=0 / decimate=0 / interlaced=0 / bluray_compat=0 / constrained_intra=0 / bframes=16 / b_pyramid=2 / b_adapt=2 / b_bias=0 / direct=3 / weightb=1 / open_gop=0 / weightp=2 / keyint=240 / keyint_min=24 / scenecut=40 / intra_refresh=0 / rc_lookahead=40 / rc=2pass / mbtree=1 / bitrate=8000 / ratetol=1.0 / qcomp=0.70 / qpmin=0 / qpmax=69 / qpstep=4 / cplxblur=20.0 / qblur=0.5 / ip_ratio=1.40 / aq=1:1.00
Language                                 : English
Encoded date                             : UTC 2018-06-12 12:17:10
Tagged date                              : UTC 2018-06-12 12:17:26
Color range                              : Limited
Color primaries                          : BT.709
Transfer characteristics                 : BT.709
Matrix coefficients                      : BT.709
Menus                                    : 6,7

Video #2
ID                                       : 7
Format                                   : JPEG
Codec ID                                 : jpeg
Duration                                 : 1h 32mn
Bit rate mode                            : Variable
Bit rate                                 : 697 bps
Width                                    : 640 pixels
Height                                   : 266 pixels
Display aspect ratio                     : 2.40:1
Frame rate mode                          : Variable
Frame rate                               : 0.003 fps
Minimum frame rate                       : 0.001 fps
Maximum frame rate                       : 0.007 fps
Color space                              : YUV
Chroma subsampling                       : 4:2:0
Bit depth                                : 8 bits
Compression mode                         : Lossy
Bits/(Pixel*Frame)                       : 1.365
Stream size                              : 454 KiB (0%)
Title                                    : Chapter Images
Language                                 : English
Default                                  : No
Encoded date                             : UTC 2018-06-12 12:17:36
Tagged date                              : UTC 2018-06-12 12:17:36
Menu For                                 : 1
ColorSpace_ICC                           : RGB

Audio #1
ID                                       : 2
Format                                   : AAC
Format/Info                              : Advanced Audio Codec
Format profile                           : LC
Codec ID                                 : mp4a-40-2
Duration                                 : 1h 32mn
Source duration                          : 1h 32mn
Bit rate mode                            : Variable
Bit rate                                 : 157 Kbps
Maximum bit rate                         : 240 Kbps
Channel(s)                               : 2 channels
Channel positions                        : Front: L R
Sampling rate                            : 48.0 KHz
Frame rate                               : 46.875 fps (1024 SPF)
Compression mode                         : Lossy
Stream size                              : 104 MiB (2%)
Source stream size                       : 104 MiB (2%)
Title                                    : Russian Stereo
Language                                 : Russian
Default                                  : Yes
Alternate group                          : 1
Encoded date                             : UTC 2018-06-12 12:17:10
Tagged date                              : UTC 2018-06-12 12:17:29
Fallback From                            : 4

Audio #2
ID                                       : 3
Format                                   : AAC
Format/Info                              : Advanced Audio Codec
Format profile                           : LC
Codec ID                                 : mp4a-40-2
Duration                                 : 1h 32mn
Source duration                          : 1h 32mn
Bit rate mode                            : Variable
Bit rate                                 : 157 Kbps
Maximum bit rate                         : 255 Kbps
Channel(s)                               : 2 channels
Channel positions                        : Front: L R
Sampling rate                            : 48.0 KHz
Frame rate                               : 46.875 fps (1024 SPF)
Compression mode                         : Lossy
Stream size                              : 104 MiB (2%)
Source stream size                       : 104 MiB (2%)
Title                                    : English Stereo
Language                                 : English
Default                                  : No
Alternate group                          : 1
Encoded date                             : UTC 2018-06-12 12:17:10
Tagged date                              : UTC 2018-06-12 12:17:29
Fallback From                            : 5

Audio #3
ID                                       : 4
Format                                   : AC-3
Format/Info                              : Audio Coding 3
Codec ID                                 : ac-3
Duration                                 : 1h 32mn
Bit rate mode                            : Constant
Bit rate                                 : 384 Kbps
Channel(s)                               : 6 channels
Channel positions                        : Front: L C R, Side: L R, LFE
Sampling rate                            : 48.0 KHz
Frame rate                               : 31.250 fps (1536 SPF)
Bit depth                                : 16 bits
Compression mode                         : Lossy
Stream size                              : 254 MiB (4%)
Title                                    : Russian DD 5.1
Language                                 : Russian
Service kind                             : Complete Main
Default                                  : Inherited From: 2
Alternate group                          : 1
Encoded date                             : UTC 2018-06-12 12:17:10
Tagged date                              : UTC 2018-06-12 12:17:19
Fallback To                              : 2

Audio #4
ID                                       : 5
Format                                   : AC-3
Format/Info                              : Audio Coding 3
Codec ID                                 : ac-3
Duration                                 : 1h 32mn
Bit rate mode                            : Constant
Bit rate                                 : 640 Kbps
Channel(s)                               : 6 channels
Channel positions                        : Front: L C R, Side: L R, LFE
Sampling rate                            : 48.0 KHz
Frame rate                               : 31.250 fps (1536 SPF)
Bit depth                                : 16 bits
Compression mode                         : Lossy
Stream size                              : 423 MiB (7%)
Title                                    : English DD 5.1
Language                                 : English
Service kind                             : Complete Main
Default                                  : No
Alternate group                          : 1
Encoded date                             : UTC 2018-06-12 12:17:10
Tagged date                              : UTC 2018-06-12 12:17:19
Fallback To                              : 3

Menu #1
00:00:00.000                             : 00:00:00.000
00:05:06.765                             : 00:05:06.765
00:10:30.547                             : 00:10:30.463
00:14:41.464                             : 00:14:41.380
00:19:55.569                             : 00:19:55.569
00:26:09.109                             : 00:26:09.067
00:34:49.421                             : 00:34:49.421
00:38:44.197                             : 00:38:44.113
00:42:26.127                             : 00:42:26.127
00:49:25.379                             : 00:49:25.296
00:54:08.328                             : 00:54:08.245
01:00:58.029                             : 01:00:57.946
01:07:16.491                             : 01:07:16.407
01:11:36.793                             : 01:11:36.709
01:18:08.017                             : 01:18:07.975
01:20:39.126                             : 01:20:39.043

Menu #2
ID                                       : 6
Codec ID                                 : text
Duration                                 : 1h 32mn
Language                                 : English
Encoded date                             : UTC 2018-06-12 12:17:29
Tagged date                              : UTC 2018-06-12 12:17:29
Bit rate mode                            : CBR
Menu For                                 : 1
00:00:00.000                             : 00:00:00.000
00:05:06.765                             : 00:05:06.765
00:10:30.547                             : 00:10:30.463
00:14:41.464                             : 00:14:41.380
00:19:55.569                             : 00:19:55.569
00:26:09.109                             : 00:26:09.067
00:34:49.421                             : 00:34:49.421
00:38:44.197                             : 00:38:44.113
00:42:26.127                             : 00:42:26.127
00:49:25.379                             : 00:49:25.296
00:54:08.328                             : 00:54:08.245
01:00:58.029                             : 01:00:57.946
01:07:16.491                             : 01:07:16.407
01:11:36.793                             : 01:11:36.709
01:18:08.017                             : 01:18:07.975
01:20:39.126                             : 01:20:39.043
x264 [info]: frame I:836   Avg QP:17.94  size:167247
x264 [info]: frame P:30812 Avg QP:21.07  size: 66319
x264 [info]: frame B:101421 Avg QP:22.08  size: 33030
x264 [info]: consecutive B-frames:  2.8%  4.7%  9.8% 17.4% 10.8% 48.3%  3.9%  0.3%  0.6%  0.5%  0.2%  0.1%  0.1%  0.1%  0.0%  0.0%  0.3%
x264 [info]: mb I  I16..4: 21.2% 59.3% 19.5%
x264 [info]: mb P  I16..4:  6.1% 17.1%  1.7%  P16..4: 41.9% 15.7%  8.1%  0.2%  0.0%    skip: 9.2%
x264 [info]: mb B  I16..4:  0.6%  1.5%  0.1%  B16..8: 49.5%  9.7%  2.0%  direct: 9.4%  skip:27.2%  L0:49.7% L1:43.8% BI: 6.5%
x264 [info]: 8x8 transform intra:68.1% inter:61.3%
x264 [info]: direct mvs  spatial:98.5% temporal:1.5%
x264 [info]: coded y,uvDC,uvAC intra: 79.5% 65.1% 27.4% inter: 40.2% 27.4% 3.6%
x264 [info]: i16 v,h,dc,p: 32% 12% 33% 23%
x264 [info]: i8 v,h,dc,ddl,ddr,vr,hd,vl,hu:  9%  6% 13% 10% 14% 13% 13% 11% 11%
x264 [info]: i4 v,h,dc,ddl,ddr,vr,hd,vl,hu: 11%  8% 10%  9% 13% 13% 13% 10% 12%
x264 [info]: i8c dc,h,v,p: 42% 23% 22% 14%
x264 [info]: Weighted P-Frames: Y:2.7% UV:1.5%
x264 [info]: ref P L0: 53.0% 12.5% 22.6% 11.4%  0.5%  0.0%
x264 [info]: ref B L0: 85.5% 11.9%  2.7%
x264 [info]: ref B L1: 94.7%  5.3%
x264 [info]: kb/s:7975.58

Релиз подготовлен для просмотра на Apple TV, iPad, iPhone, iPod Touch.
Для просмотра данного релиза на компьютере с ОС Windows рекомендуется использовать VLC media player

Трекер:  [ 12-Июн-2018 16:06 ]

  

Скачать .torrent

Размер .torrent файла 60 KB


Размер: 6.02 GB
Хэш (hash) релиза: 7dfbb75e546384a6247074898a645dfedbbfbf72

Еще никто не оставлял запись к записи скачать торрент [ATV3] Акт мести Acts of Violence . Будь первым!

!Обратная связь