Anohana: Ano Hi Mita Hana no Namae wo Bokutachi wa Mada Shiranai Movie Subtitle Indonesia | Deadpool 2 | Murder Mystery

Скачать через торрент Ривердэйл Riverdale Фильм бесплатно в хорошем качестве torrent

Скачивайте на UnionPeer.org фильмы через торрент без регистрации. Новинки кино в хорошем качестве через торрент. На UnionPeer.org можно скачать через торрент фильмы 2014 и 2015 годов. Самые новые фильмы.

Скачать торрент Ривердэйл Riverdale бесплатно через .torrent фильм мультфильм сериал

Статистика раздачи
Размер:  10.42 GB   |    Зарегистрирован:  9 дней   |    .torrent скачан:  23 раза   |   
Раздают:  1  
   
загрузка...
 
Автор Сообщение

Galfimbul

avatar Galfimbul


Ривердэйл / Riverdale

Год выпуска: 2017
Страна: США
Жанр: драма
Продолжительность: ~ 45 мин.
Перевод: Субтитры (Notabenoid)
Режиссёры: Ли Толанд Кригер, Ли Роуз
В ролях: Марисоль Николс, Кей Джей Апа, Коул Спроус, Камила Мендес, Лили Рейнхарт, Мэделин Петш, Эшли Мюррэй, Люк Перри и др.

Описание: Сериал расскажет о жизни и приключениях жизнерадостного и никогда не унывающего подростка Арчи Эндрюса, а также Бэтти Купер, Вероники Лодж и их друзей из Ривердэйла. Действие разворачивается в современном мире, а главные герои решают исследовать сокрытую от посторонних сторону жизни маленького мирного городка со всеми его странностями и тёмными тайнами, прячущимися за праздничным фасадом.
Кинопоиск / IMDb

Качество: WEBRip 720p
Контейнер: MKV
Видео: 1280x720 (16:9), 23.976 fps, ~3700kbps, ~0.164 bit/pixel
Аудио: 48 kHz, AC3 Dolby Digital, 3/2 (L,C,R,l,r) + LFE ch, ~384.00 kbps
Субтитры: Русские (Notabenoid), внешним файлом, srt; английские (встроенные, отключаемые), srt
Реклама: отсутствует
01. Chapter One: The River's Edge
02. Chapter Two: A Touch of Evil
03. Chapter Three: Body Double
04. Chapter Four: The Last Picture
05. Chapter Five: Heart of Darkness
06. Chapter Six: Faster, Pussycats! Kill! Kill!
07. Chapter Seven: In a Lonely Place
08. Chapter Eight: The Outsiders
General
Unique ID : 174790439375070559973263192761263211929 (0x837F6A03AB9BB6AFBFB0D4F1F7004599)
Complete name : D:\Временная\Riverdale\Riverdale 01.mkv
Format : Matroska
Format version : Version 4 / Version 2
File size : 1.38 GiB
Duration : 47 min 9 s
Overall bit rate : 4 178 kb/s
Encoded date : UTC 2017-01-27 20:06:38
Writing application : mkvmerge v7.6.0 ('Garden of Dreams') 64bit built on Feb 8 2015 13:04:34
Writing library : libebml v1.3.1 + libmatroska v1.4.2

Video
ID : 1
Format : AVC
Format/Info : Advanced Video Codec
Format profile : [email protected]
Format settings, CABAC : Yes
Format settings, ReFrames : 9 frames
Codec ID : V_MPEG4/ISO/AVC
Duration : 47 min 9 s
Bit rate : 3 710 kb/s
Width : 1 280 pixels
Height : 720 pixels
Display aspect ratio : 16:9
Frame rate mode : Constant
Frame rate : 23.976 (24000/1001) FPS
Color space : YUV
Chroma subsampling : 4:2:0
Bit depth : 8 bits
Scan type : Progressive
Bits/(Pixel*Frame) : 0.168
Stream size : 1.22 GiB (89%)
Writing library : x264 core 144 r2525 40bb568
Encoding settings : cabac=1 / ref=9 / deblock=1:-3:-3 / analyse=0x3:0x133 / me=umh / subme=10 / psy=1 / psy_rd=1.00:0.00 / mixed_ref=1 / me_range=48 / chroma_me=1 / trellis=2 / 8x8dct=1 / cqm=0 / deadzone=21,11 / fast_pskip=0 / chroma_qp_offset=-2 / threads=12 / lookahead_threads=2 / sliced_threads=0 / nr=0 / decimate=0 / interlaced=0 / bluray_compat=0 / constrained_intra=0 / bframes=8 / b_pyramid=2 / b_adapt=2 / b_bias=0 / direct=3 / weightb=1 / open_gop=0 / weightp=2 / keyint=250 / keyint_min=23 / scenecut=40 / intra_refresh=0 / rc=crf / mbtree=0 / crf=17.0 / qcomp=0.60 / qpmin=0 / qpmax=69 / qpstep=4 / ip_ratio=1.30 / pb_ratio=1.20 / aq=3:0.80
Language : English
Default : Yes
Forced : No

Audio
ID : 2
Format : AC-3
Format/Info : Audio Coding 3
Mode extension : CM (complete main)
Format settings, Endianness : Big
Codec ID : A_AC3
Duration : 47 min 9 s
Bit rate mode : Constant
Bit rate : 384 kb/s
Channel(s) : 6 channels
Channel positions : Front: L C R, Side: L R, LFE
Sampling rate : 48.0 kHz
Frame rate : 31.250 FPS (1536 spf)
Bit depth : 16 bits
Compression mode : Lossy
Stream size : 130 MiB (9%)
Language : English
Default : Yes
Forced : No

Text
ID : 3
Format : UTF-8
Codec ID : S_TEXT/UTF8
Codec ID/Info : UTF-8 Plain Text
Language : English
Default : No
Forced : No


Трекер:  [ 12-Июн-2018 15:48 ]

  

Скачать .torrent

Размер .torrent файла 27 KB


Размер: 10.42 GB
Хэш (hash) релиза: 9a3e1601a60bc9ff15b574da222b9ac835660e7b
Подписка на обновления:

Еще никто не оставлял запись к записи скачать торрент Ривердэйл Riverdale . Будь первым!

!Обратная связь