One Piece Chapter 767: | Download | April McCall

Скачать через торрент музыку Самый длинный день The Longest Day бесплатно без регистрации torrent

Статистика раздачи
Размер:  251 MB   |    Зарегистрирован:  12 дней   |    .torrent скачан:  21 раз   |   
Раздают:  1  
   
загрузка...
 
Автор Сообщение

Galfimbul

avatar Galfimbul


Самый длинный день |
The Longest Day, Le Jour le plus long
Название альбома: The Longest Day (Le Jour le plus long)
Жанр: Score
Композитор: Paul Anka, Maurice Jarre
Год выпуска диска: 2013
Год выпуска фильма: 1962
Страна-производитель диска: France
Издатель (лейбл): Milan
Номер по каталогу: 399 485-2
Аудиокодек: FLAC (*.flac)
Тип рипа: tracks+.cue
Битрейт аудио: lossless
Продолжительность: 00:43:49
Источник: собственный рип
Наличие сканов в содержимом раздачи: да, 600 dpi, jpg
Also contains music from: Un Taxi Pour Tobrouk, Paris Brule-t-il?, La Bataille Du Rail, Le Pere Tranquille, Jeux Interdits
THE LONGEST DAY (tracks 1-10):1. Le Jour le plus long (Marche) (02:25) Paul Anka - Arr. Mitch Miller / Choeurs & Orchestre de Mitch Miller2. Yankee Doodle - The Girl I Left Behind Me (Marche) (02:28) Traditionnel - Arr. Jimmy Carroll / Choeurs & Orchestre de Mitch Miller3. Le Jour le plus long (Marche) (02:03) Paul Anka - Arr. Mitch Miller / Choeurs & Orchestre de Mitch Miller4. Dixie (02:36) Traditionnel - Arr. Lennie Carroll / Choeurs & Orchestre de Mitch Miller5. Don't Fence Me In (02:38) Cole Porter / Orchestre dirige par Maurice Jarre6. Harmonica Solo (Theme) (02:01) Paul Anka / Orchestre dirige par Maurice Jarre7. B.B.C. Drums (00:58) Beethoven - Arr. Maurice Jarre / Orchestre dirige par Maurice Jarre8. Scene du Radar (01:35) Paul Anka / Orchestre dirige par Maurice Jarre9. Les Cornemuses de Lord Lovat (00:48) Traditionnel - Arr. Maurice Jarre / Orchestre dirige par Maurice Jarre10. Le débarquement à Omaha Beach (01:13) Paul Anka / Orchestre dirige par Maurice JarreUN TAXI POUR TOBROUK (tracks 11-12):11. La Marche des Anges (02:17) Charles Aznavour - Georges Garvarentz (d’apres Gloria) / Les Compagnons de la Chanson12. La Marche des Anges (02:00) Georges Garvarentz / Orchestre & Choeur diriges par Paul Mauriat13. PARIS BRULE-T-IL ?: Paris en colère – Suite (06:15) Maurice Jarre / BBC Orchestra dirige par Maurice Jarre14. LA BATAILLE DU RAIL - Générique début (01:59) Composer & Conductor : Yves Baudrier15. LE PERE TRANQUILLE - Générique début (03:45) Composer & Conductor : René CloërecJEUX INTERDITS (tracks 16-20):16. Jeux Interdits - Générique début (02:38) Composer & Conductor : Narciso Yepes17. Première variation sur un theme de “Romance” (01:47) Fernando Sor - Arr. Narciso Yepes / Narciso Yepes (tracks 17-20)18. Deuxième variation sur un theme de “Romance” (01:25)19. Troisième variation sur un theme de “Romance” (01:11)20. Quatrième variation sur un theme de “Romance” (01:47)
Exact Audio Copy V1.3 from 2. September 2016

EAC extraction logfile from 10. June 2018, 15:04

Various / Le Jour Le Plus Long

Used drive : PLEXTOR DVDR PX-L890SA Adapter: 1 ID: 0

Read mode : SecureUtilize accurate stream : YesDefeat audio cache : YesMake use of C2 pointers : No

Read offset correction : 6Overread into Lead-In and Lead-Out : NoFill up missing offset samples with silence : YesDelete leading and trailing silent blocks : NoNull samples used in CRC calculations : YesUsed interface : Native Win32 interface for Win NT & 2000Gap handling : Appended to previous track

Used output format : User Defined EncoderSelected bitrate : 1024 kBit/sQuality : HighAdd ID3 tag : NoCommand line compressor : C:\Program Files\Exact Audio Copy\Flac\flac.exeAdditional command line options : -V -8 -T "Genre=%genre%" -T "Artist=%artist%" -T "Title=%title%" -T "Album=%albumtitle%" -T "Date=%year%" -T "Tracknumber=%tracknr%" -T "Comment=%comment%" %source%

TOC of the extracted CD

Track | Start | Length | Start sector | End sector --------------------------------------------------------- 1 | 0:00.00 | 2:27.37 | 0 | 11061 2 | 2:27.37 | 2:31.19 | 11062 | 22405 3 | 4:58.56 | 2:05.70 | 22406 | 31850 4 | 7:04.51 | 2:37.74 | 31851 | 43699 5 | 9:42.50 | 2:41.73 | 43700 | 55847 6 | 12:24.48 | 2:03.52 | 55848 | 65124 7 | 14:28.25 | 1:01.26 | 65125 | 69725 8 | 15:29.51 | 1:37.49 | 69726 | 77049 9 | 17:07.25 | 0:52.18 | 77050 | 80967 10 | 17:59.43 | 1:16.42 | 80968 | 86709 11 | 19:16.10 | 2:19.74 | 86710 | 97208 12 | 21:36.09 | 2:03.38 | 97209 | 106471 13 | 23:39.47 | 6:04.52 | 106472 | 133823 14 | 29:44.24 | 2:00.65 | 133824 | 142888 15 | 31:45.14 | 3:47.62 | 142889 | 159975 16 | 35:33.01 | 2:39.58 | 159976 | 171958 17 | 38:12.59 | 1:48.71 | 171959 | 180129 18 | 40:01.55 | 1:27.08 | 180130 | 186662 19 | 41:28.63 | 1:13.23 | 186663 | 192160 20 | 42:42.11 | 1:47.06 | 192161 | 200191

Track 1

Filename F:\torrent\Le Jour Le Plus Long_Paul Anka_Maurice Jarre\score\01 Choeurs et Orchestre de Mitch Miler - Le Jour le plus long (Marche) - Paul Anka - Arr. Mitch Miller.wav

Pre-gap length 0:00:02.00

Peak level 89.5 % Extraction speed 4.3 X Track quality 100.0 % Test CRC B9590947 Copy CRC B9590947 Accurately ripped (confidence 2) [F91573B5] (AR v2) Copy OK

Track 2

Filename F:\torrent\Le Jour Le Plus Long_Paul Anka_Maurice Jarre\score\02 Choeurs et Orchestre de Mitch Miler - Yankee Doodle - The Girl I Left Behind Me (Marche) - Traditionnel - Arr. Jimmy Carroll.wav

Pre-gap length 0:00:01.60

Peak level 79.8 % Extraction speed 4.7 X Track quality 100.0 % Test CRC E7ACC614 Copy CRC E7ACC614 Accurately ripped (confidence 2) [832E48A9] (AR v2) Copy OK

Track 3

Filename F:\torrent\Le Jour Le Plus Long_Paul Anka_Maurice Jarre\score\03 Choeurs et Orchestre de Mitch Miler - Le Jour le plus long (Marche) -Paul Anka - Arr. Mitch Miller.wav

Pre-gap length 0:00:02.20

Peak level 86.8 % Extraction speed 4.8 X Track quality 100.0 % Test CRC 6513A220 Copy CRC 6513A220 Accurately ripped (confidence 2) [D885E0E9] (AR v2) Copy OK

Track 4

Filename F:\torrent\Le Jour Le Plus Long_Paul Anka_Maurice Jarre\score\04 Choeurs et Orchestre de Mitch Miler - Dixie - Traditionnel - Arr. Jimmy Carroll.wav

Pre-gap length 0:00:02.40

Peak level 77.7 % Extraction speed 5.3 X Track quality 100.0 % Test CRC F62B643D Copy CRC F62B643D Accurately ripped (confidence 2) [DA71BF61] (AR v2) Copy OK

Track 5

Filename F:\torrent\Le Jour Le Plus Long_Paul Anka_Maurice Jarre\score\05 Orchestre dirige par Maurice Jarre - Don't Fence Me In - Cole Porter.wav

Pre-gap length 0:00:01.69

Peak level 100.0 % Extraction speed 4.7 X Track quality 99.9 % Test CRC E55C86C0 Copy CRC E55C86C0 Accurately ripped (confidence 2) [DAD33F7D] (AR v2) Copy OK

Track 6

Filename F:\torrent\Le Jour Le Plus Long_Paul Anka_Maurice Jarre\score\06 Orchestre dirige par Maurice Jarre - Harmonica Solo (Theme) - Paul Anka.wav

Pre-gap length 0:00:03.50

Peak level 41.1 % Extraction speed 5.5 X Track quality 100.0 % Test CRC A18FF19F Copy CRC A18FF19F Accurately ripped (confidence 2) [3F877E68] (AR v2) Copy OK

Track 7

Filename F:\torrent\Le Jour Le Plus Long_Paul Anka_Maurice Jarre\score\07 Orchestre dirige par Maurice Jarre - B.B.C. Drums - Beethoven - Arr. Maurice Jarre.wav

Pre-gap length 0:00:02.47

Peak level 99.8 % Extraction speed 4.4 X Track quality 100.0 % Test CRC FE44D1D3 Copy CRC FE44D1D3 Accurately ripped (confidence 2) [068CF4BE] (AR v2) Copy OK

Track 8

Filename F:\torrent\Le Jour Le Plus Long_Paul Anka_Maurice Jarre\score\08 Orchestre dirige par Maurice Jarre - Scene du Radar - Paul Anka.wav

Pre-gap length 0:00:03.23

Peak level 90.3 % Extraction speed 5.4 X Track quality 100.0 % Test CRC 996C8E56 Copy CRC 996C8E56 Accurately ripped (confidence 2) [4C2208CC] (AR v2) Copy OK

Track 9

Filename F:\torrent\Le Jour Le Plus Long_Paul Anka_Maurice Jarre\score\09 Orchestre dirige par Maurice Jarre - Les cornemuses de Lord Lovat - Traditionnel - Arr. Maurice Jarre.wav

Pre-gap length 0:00:02.34

Peak level 52.5 % Extraction speed 4.4 X Track quality 100.0 % Test CRC EF23320F Copy CRC EF23320F Accurately ripped (confidence 2) [3C2546A1] (AR v2) Copy OK

Track 10

Filename F:\torrent\Le Jour Le Plus Long_Paul Anka_Maurice Jarre\score\10 Orchestre dirige par Maurice Jarre - Le debarquement а Omaha Beach - Paul Anka.wav

Pre-gap length 0:00:03.69

Peak level 87.1 % Extraction speed 5.1 X Track quality 100.0 % Test CRC DDC0E23D Copy CRC DDC0E23D Accurately ripped (confidence 2) [1E25AFCC] (AR v2) Copy OK

Track 11

Filename F:\torrent\Le Jour Le Plus Long_Paul Anka_Maurice Jarre\score\11 Les Compagnons de la Chanson - La Marche des Anges - Charles Aznavour - Georges Garvarentz (d’apres Gloria).wav

Pre-gap length 0:00:02.60

Peak level 86.4 % Extraction speed 6.2 X Track quality 100.0 % Test CRC 3D6BC9B4 Copy CRC 3D6BC9B4 Accurately ripped (confidence 2) [018C925C] (AR v2) Copy OK

Track 12

Filename F:\torrent\Le Jour Le Plus Long_Paul Anka_Maurice Jarre\score\12 Orchestre & Choeur diriges par Paul Mauriat - La Marche des Anges - Georges Garvarentz.wav

Pre-gap length 0:00:02.41

Peak level 81.6 % Extraction speed 5.1 X Track quality 99.9 % Test CRC 62BCB394 Copy CRC 62BCB394 Accurately ripped (confidence 2) [14915188] (AR v2) Copy OK

Track 13

Filename F:\torrent\Le Jour Le Plus Long_Paul Anka_Maurice Jarre\score\13 BBC Orchestra dirige par Maurice Jarre - Paris en colere (Suite) - Maurice Jarre.wav

Pre-gap length 0:00:03.29

Peak level 100.0 % Extraction speed 7.9 X Track quality 100.0 % Test CRC 8C5D05DB Copy CRC 8C5D05DB Accurately ripped (confidence 2) [12AAACBD] (AR v2) Copy OK

Track 14

Filename F:\torrent\Le Jour Le Plus Long_Paul Anka_Maurice Jarre\score\14 Yves Baudrier - La Bataille du Rail (Generique Debut).wav

Pre-gap length 0:00:01.57

Peak level 86.9 % Extraction speed 6.7 X Track quality 100.0 % Test CRC E39A9461 Copy CRC E39A9461 Accurately ripped (confidence 2) [C913350A] (AR v2) Copy OK

Track 15

Filename F:\torrent\Le Jour Le Plus Long_Paul Anka_Maurice Jarre\score\15 Rene Cloerec - Le Pere Tranquille (Generique Debut).wav

Pre-gap length 0:00:01.57

Peak level 100.0 % Extraction speed 8.0 X Track quality 100.0 % Test CRC ECA35A8C Copy CRC ECA35A8C Accurately ripped (confidence 2) [CF13CEA7] (AR v2) Copy OK

Track 16

Filename F:\torrent\Le Jour Le Plus Long_Paul Anka_Maurice Jarre\score\16 Narciso Yepes - Jeux Interdits (Generique Debut).wav

Pre-gap length 0:00:02.12

Peak level 99.2 % Extraction speed 7.7 X Track quality 100.0 % Test CRC 1755026E Copy CRC 1755026E Accurately ripped (confidence 2) [86E64C25] (AR v2) Copy OK

Track 17

Filename F:\torrent\Le Jour Le Plus Long_Paul Anka_Maurice Jarre\score\17 Narciso Yepes - Premiere variation sur un theme de ''Romance''.wav

Pre-gap length 0:00:01.57

Peak level 81.9 % Extraction speed 7.2 X Track quality 100.0 % Test CRC 812F5C25 Copy CRC 812F5C25 Accurately ripped (confidence 2) [4BB1EDD5] (AR v2) Copy OK

Track 18

Filename F:\torrent\Le Jour Le Plus Long_Paul Anka_Maurice Jarre\score\18 Narciso Yepes - Deuxieme variation sur un theme de ''Romance''.wav

Pre-gap length 0:00:01.57

Peak level 83.4 % Extraction speed 6.8 X Track quality 100.0 % Test CRC 2CD6289A Copy CRC 2CD6289A Accurately ripped (confidence 2) [4FA4D899] (AR v2) Copy OK

Track 19

Filename F:\torrent\Le Jour Le Plus Long_Paul Anka_Maurice Jarre\score\19 Narciso Yepes - Troisieme variation sur un theme de ''Romance''.wav

Pre-gap length 0:00:01.57

Peak level 100.0 % Extraction speed 6.5 X Track quality 100.0 % Test CRC 7AD0163E Copy CRC 7AD0163E Accurately ripped (confidence 2) [EED42EE4] (AR v2) Copy OK

Track 20

Filename F:\torrent\Le Jour Le Plus Long_Paul Anka_Maurice Jarre\score\20 Narciso Yepes - Quatrieme variation sur un theme de ''Romance''.wav

Pre-gap length 0:00:01.57

Peak level 93.9 % Extraction speed 7.4 X Track quality 100.0 % Test CRC 356489D1 Copy CRC 356489D1 Accurately ripped (confidence 2) [80A753FD] (AR v2) Copy OK

All tracks accurately ripped

No errors occurred

End of status report

---- CUETools DB Plugin V2.1.6

[CTDB TOCID: QULEbLZsG1sjKBWLHNN0MZokN7Y-] foundSubmit result: QULEbLZsG1sjKBWLHNN0MZokN7Y- has been confirmedTrack | CTDB Status 1 | (1/1) Accurately ripped 2 | (1/1) Accurately ripped 3 | (1/1) Accurately ripped 4 | (1/1) Accurately ripped 5 | (1/1) Accurately ripped 6 | (1/1) Accurately ripped 7 | (1/1) Accurately ripped 8 | (1/1) Accurately ripped 9 | (1/1) Accurately ripped 10 | (1/1) Accurately ripped 11 | (1/1) Accurately ripped 12 | (1/1) Accurately ripped 13 | (1/1) Accurately ripped 14 | (1/1) Accurately ripped 15 | (1/1) Accurately ripped 16 | (1/1) Accurately ripped 17 | (1/1) Accurately ripped 18 | (1/1) Accurately ripped 19 | (1/1) Accurately ripped 20 | (1/1) Accurately ripped

==== Log checksum FDD95FCDE5B877D060A376AB837F0890BA13DCE5225F1902B8269C82FD2219E1 ====
REM GENRE SoundtrackREM DATE 2013REM DISCID 0B0A6D14REM COMMENT "ExactAudioCopy v1.3"CATALOG 3299039948521PERFORMER "Various"TITLE "Le Jour Le Plus Long"REM COMPOSER ""FILE "01 Choeurs et Orchestre de Mitch Miler - Le Jour le plus long (Marche) - Paul Anka - Arr. Mitch Miller.wav" WAVE TRACK 01 AUDIO TITLE "Le Jour le plus long (Marche) - Paul Anka - Arr. Mitch Miller" PERFORMER "Choeurs et Orchestre de Mitch Miler" REM COMPOSER "" ISRC FRZ811305027 INDEX 01 00:00:00 TRACK 02 AUDIO TITLE "Yankee Doodle - The Girl I Left Behind Me (Marche) - Traditionnel - Arr. Jimm..." PERFORMER "Choeurs et Orchestre de Mitch Miler" REM COMPOSER "" ISRC FRZ811305028 INDEX 00 02:25:52FILE "02 Choeurs et Orchestre de Mitch Miler - Yankee Doodle - The Girl I Left Behind Me (Marche) - Traditionnel - Arr. Jimmy Carroll.wav" WAVE INDEX 01 00:00:00 TRACK 03 AUDIO TITLE "Le Jour le plus long (Marche) -Paul Anka - Arr. Mitch Miller" PERFORMER "Choeurs et Orchestre de Mitch Miler" REM COMPOSER "" ISRC FRZ811305029 INDEX 00 02:28:74FILE "03 Choeurs et Orchestre de Mitch Miler - Le Jour le plus long (Marche) -Paul Anka - Arr. Mitch Miller.wav" WAVE INDEX 01 00:00:00 TRACK 04 AUDIO TITLE "Dixie - Traditionnel - Arr. Jimmy Carroll" PERFORMER "Choeurs et Orchestre de Mitch Miler" REM COMPOSER "" ISRC FRZ811305030 INDEX 00 02:03:30FILE "04 Choeurs et Orchestre de Mitch Miler - Dixie - Traditionnel - Arr. Jimmy Carroll.wav" WAVE INDEX 01 00:00:00 TRACK 05 AUDIO TITLE "Don't Fence Me In - Cole Porter" PERFORMER "Orchestre dirige par Maurice Jarre" REM COMPOSER "" ISRC FRZ811305031 INDEX 00 02:36:05FILE "05 Orchestre dirige par Maurice Jarre - Don't Fence Me In - Cole Porter.wav" WAVE INDEX 01 00:00:00 TRACK 06 AUDIO TITLE "Harmonica Solo (Theme) - Paul Anka" PERFORMER "Orchestre dirige par Maurice Jarre" REM COMPOSER "" ISRC FRZ811305032 INDEX 00 02:38:23FILE "06 Orchestre dirige par Maurice Jarre - Harmonica Solo (Theme) - Paul Anka.wav" WAVE INDEX 01 00:00:00 TRACK 07 AUDIO TITLE "B.B.C. Drums - Beethoven - Arr. Maurice Jarre" PERFORMER "Orchestre dirige par Maurice Jarre" REM COMPOSER "" ISRC FRZ811305033 INDEX 00 02:01:05FILE "07 Orchestre dirige par Maurice Jarre - B.B.C. Drums - Beethoven - Arr. Maurice Jarre.wav" WAVE INDEX 01 00:00:00 TRACK 08 AUDIO TITLE "Scene du Radar - Paul Anka" PERFORMER "Orchestre dirige par Maurice Jarre" REM COMPOSER "" ISRC FRZ811305034 INDEX 00 00:58:03FILE "08 Orchestre dirige par Maurice Jarre - Scene du Radar - Paul Anka.wav" WAVE INDEX 01 00:00:00 TRACK 09 AUDIO TITLE "Les cornemuses de Lord Lovat - Traditionnel - Arr. Maurice Jarre" PERFORMER "Orchestre dirige par Maurice Jarre" REM COMPOSER "" ISRC FRZ811305035 INDEX 00 01:35:15FILE "09 Orchestre dirige par Maurice Jarre - Les cornemuses de Lord Lovat - Traditionnel - Arr. Maurice Jarre.wav" WAVE INDEX 01 00:00:00 TRACK 10 AUDIO TITLE "Le debarquement а Omaha Beach - Paul Anka" PERFORMER "Orchestre dirige par Maurice Jarre" REM COMPOSER "" ISRC FRZ811305036 INDEX 00 00:48:24FILE "10 Orchestre dirige par Maurice Jarre - Le debarquement а Omaha Beach - Paul Anka.wav" WAVE INDEX 01 00:00:00 TRACK 11 AUDIO TITLE "La Marche des Anges - Charles Aznavour - Georges Garvarentz (d’apres Gloria)" PERFORMER "Les Compagnons de la Chanson" REM COMPOSER "" ISRC FRZ811305037 INDEX 00 01:13:57FILE "11 Les Compagnons de la Chanson - La Marche des Anges - Charles Aznavour - Georges Garvarentz (d’apres Gloria).wav" WAVE INDEX 01 00:00:00 TRACK 12 AUDIO TITLE "La Marche des Anges - Georges Garvarentz" PERFORMER "Orchestre & Choeur diriges par Paul Mauriat" REM COMPOSER "" ISRC FRZ811305038 INDEX 00 02:17:33FILE "12 Orchestre & Choeur diriges par Paul Mauriat - La Marche des Anges - Georges Garvarentz.wav" WAVE INDEX 01 00:00:00 TRACK 13 AUDIO TITLE "Paris en colere (Suite) - Maurice Jarre" PERFORMER "BBC Orchestra dirige par Maurice Jarre" REM COMPOSER "" ISRC FRZ811207062 INDEX 00 02:00:09FILE "13 BBC Orchestra dirige par Maurice Jarre - Paris en colere (Suite) - Maurice Jarre.wav" WAVE INDEX 01 00:00:00 TRACK 14 AUDIO TITLE "La Bataille du Rail (Generique Debut)" PERFORMER "Yves Baudrier" REM COMPOSER "" ISRC FRZ811204024 INDEX 00 06:02:70FILE "14 Yves Baudrier - La Bataille du Rail (Generique Debut).wav" WAVE INDEX 01 00:00:00 TRACK 15 AUDIO TITLE "Le Pere Tranquille (Generique Debut)" PERFORMER "Rene Cloerec" REM COMPOSER "" ISRC FRZ811205003 INDEX 00 01:59:08FILE "15 Rene Cloerec - Le Pere Tranquille (Generique Debut).wav" WAVE INDEX 01 00:00:00 TRACK 16 AUDIO TITLE "Jeux Interdits (Generique Debut)" PERFORMER "Narciso Yepes" REM COMPOSER "" ISRC FRZ811204019 INDEX 00 03:45:50FILE "16 Narciso Yepes - Jeux Interdits (Generique Debut).wav" WAVE INDEX 01 00:00:00 TRACK 17 AUDIO TITLE "Premiere variation sur un theme de 'Romance'" PERFORMER "Narciso Yepes" REM COMPOSER "" ISRC FRZ811204020 INDEX 00 02:38:01FILE "17 Narciso Yepes - Premiere variation sur un theme de ''Romance''.wav" WAVE INDEX 01 00:00:00 TRACK 18 AUDIO TITLE "Deuxieme variation sur un theme de 'Romance'" PERFORMER "Narciso Yepes" REM COMPOSER "" ISRC FRZ811204021 INDEX 00 01:47:14FILE "18 Narciso Yepes - Deuxieme variation sur un theme de ''Romance''.wav" WAVE INDEX 01 00:00:00 TRACK 19 AUDIO TITLE "Troisieme variation sur un theme de 'Romance'" PERFORMER "Narciso Yepes" REM COMPOSER "" ISRC FRZ811204022 INDEX 00 01:25:26FILE "19 Narciso Yepes - Troisieme variation sur un theme de ''Romance''.wav" WAVE INDEX 01 00:00:00 TRACK 20 AUDIO TITLE "Quatrieme variation sur un theme de 'Romance'" PERFORMER "Narciso Yepes" REM COMPOSER "" ISRC FRZ811204023 INDEX 00 01:11:41FILE "20 Narciso Yepes - Quatrieme variation sur un theme de ''Romance''.wav" WAVE INDEX 01 00:00:00


Трекер:  [ 12-Июн-2018 15:36 ]

  

Скачать .torrent

Размер .torrent файла 23 KB


Размер: 251 MB
Хэш (hash) релиза: 0386bb9af612321cdafa50dd9b49d35010047ba1

Еще никто не оставлял запись к записи скачать торрент Самый длинный день The Longest Day . Будь первым!

!Обратная связь