[…] | […] | MH Themes

Скачать через торрент Жирным шрифтом The Bold Type Фильм бесплатно в хорошем качестве torrent

Скачивайте на UnionPeer.org фильмы через торрент без регистрации. Новинки кино в хорошем качестве через торрент. На UnionPeer.org можно скачать через торрент фильмы 2014 и 2015 годов. Самые новые фильмы.

Скачать торрент Жирным шрифтом The Bold Type бесплатно через .torrent фильм мультфильм сериал

Статистика раздачи
Размер:  30.3 GB   |    Зарегистрирован:  9 дней   |    .torrent скачан:  23 раза   |   
Раздают:  1  
   
загрузка...
 
Автор Сообщение

Galfimbul

avatar Galfimbul


Жирным шрифтом - Первый сезон
The Bold Type - The First Season
Год выпуска: 2017
Страна: США
Производство: Freeform
Жанр: драма
Продолжительность: 00:45:00
Перевод: Любительский (многоголосый закадровый) BaibaKo
Автор идеи: Сара Уотсон / Sarah Watson
В ролях: Кейти Стивенс, Аиша Ди, Меган Фой, Сэм Пейдж, Мэтт Уорд, Мелора Хардин, Николь Бушери, Адам Каприоло, Стивен Конрад Мур, Ева Авила, Стефани Коста и др.
Описание: Сюжет сериала расскажет о первых шагах в индустрии главного редактора журнала Cosmopolitan и исполнительного директора по контенту Hearst Magazine Джоанны Коулз. В центре внимания проекта оказываются три девушки, представляющие один современный модный журнал. Героини живут в Нью-Йорке и наслаждаются своим оглушительным успехом на работе. Однако в личной жизни пока что все не так хорошо и радужно, как могло бы показаться. Главные героини стремятся за всеми новинками моды, забывая о естественности и природной красоте. Нередко на их пути попадаются состоятельные мужчины, которых волнует лишь их светский образ. Однако главные героини начинают понимать, что в жизни самое главное не карьера. Да и дружба не должна уходить на второе место! Посмотрим, получится ли им покорить мужчин своей мечты.
Все раздачи | КиноПоиск | IMDb | Sample
<div class="post-box-default">
<div class="post-box">Рекламы нет</div>
</div>
Качество: WEB-DL 1080p (NTb)
Формат: MKV
Видео: x264, 1920x1080 (16:9), 23.976 fps, ~10.7 Mbps avg, 0.216 bit/pixel
Аудио #1: Russian 48.0 KHz, AC3, 3/2 (L,C,R,l,r) + LFE ch, ~640.00 kbps avg |BaibaKo|
Аудио #2: English 48.0 KHz, EAC3, 3/2 (L,C,R,l,r) + LFE ch, ~640.00 kbps avg |Original|
Субтитры: английские (SDH)
Сборка и работа со звуком - whip93.
General
Unique ID : 57432415950793947687991784058225789711 (0x2B3514BA2CF203D661DE0DB7CCAD8B0F)
Complete name : D:\Фильмы\The Bold Type - The Complete 1st Season - whip93\The.Bold.Type.S01E01.Pilot.1080p.WEB-DL.DD5.1.H.264.-whip93.mkv
Format : Matroska
Format version : Version 4 / Version 2
File size : 3.85 GiB
Duration : 45 min 48 s
Overall bit rate mode : Variable
Overall bit rate : 12.0 Mb/s
Movie name : Жирным шрифтом | The Bold Type (S01E01) - Release by whip93
Encoded date : UTC 2018-06-11 07:32:31
Writing application : mkvmerge v22.0.0 ('At The End Of The World') 64-bit
Writing library : libebml v1.3.5 + libmatroska v1.4.8

Video
ID : 1
Format : AVC
Format/Info : Advanced Video Codec
Format profile : [email protected]
Format settings : CABAC / 4 Ref Frames
Format settings, CABAC : Yes
Format settings, ReFrames : 4 frames
Codec ID : V_MPEG4/ISO/AVC
Duration : 45 min 48 s
Bit rate mode : Variable
Bit rate : 10.7 Mb/s
Maximum bit rate : 15.0 Mb/s
Width : 1 920 pixels
Height : 1 080 pixels
Display aspect ratio : 16:9
Frame rate mode : Constant
Frame rate : 23.976 (24000/1001) FPS
Color space : YUV
Chroma subsampling : 4:2:0
Bit depth : 8 bits
Scan type : Progressive
Bits/(Pixel*Frame) : 0.216
Stream size : 3.44 GiB (89%)
Title : NTb's WEB-DL
Language : English
Default : Yes
Forced : No
Color range : Limited
Color primaries : BT.709
Transfer characteristics : BT.709
Matrix coefficients : BT.709

Audio #1
ID : 2
Format : AC-3
Format/Info : Audio Coding 3
Codec ID : A_AC3
Duration : 45 min 48 s
Bit rate mode : Constant
Bit rate : 640 kb/s
Channel(s) : 6 channels
Channel positions : Front: L C R, Side: L R, LFE
Sampling rate : 48.0 kHz
Frame rate : 31.250 FPS (1536 SPF)
Bit depth : 16 bits
Compression mode : Lossy
Stream size : 210 MiB (5%)
Title : MVO (BaibaKo)
Language : Russian
Service kind : Complete Main
Default : Yes
Forced : No

Audio #2
ID : 3
Format : E-AC-3
Format/Info : Enhanced Audio Coding 3
Codec ID : A_EAC3
Duration : 45 min 48 s
Bit rate mode : Constant
Bit rate : 640 kb/s
Channel(s) : 6 channels
Channel positions : Front: L C R, Side: L R, LFE
Sampling rate : 48.0 kHz
Frame rate : 187.500 FPS (256 SPF)
Compression mode : Lossy
Stream size : 210 MiB (5%)
Title : Original
Language : English
Service kind : Complete Main
Default : No
Forced : No

Text
ID : 4
Format : UTF-8
Codec ID : S_TEXT/UTF8
Codec ID/Info : UTF-8 Plain Text
Duration : 45 min 13 s
Bit rate : 98 b/s
Count of elements : 1151
Stream size : 32.6 KiB (0%)
Title : Original (SDH)
Language : English
Default : No
Forced : No



Трекер:  [ 12-Июн-2018 13:48 ]

  

Скачать .torrent

Размер .torrent файла 154 KB


Размер: 30.3 GB
Хэш (hash) релиза: c26c4140c0c08938e0a58134cecbdf1c40ee6c3b
Подписка на обновления:

Еще никто не оставлял запись к записи скачать торрент Жирным шрифтом The Bold Type . Будь первым!

!Обратная связь