Kurzfilme | Li-Wu Tai | Ben 10 2016 S02E17 Super-Villain Team-Up 720p WEB-DL AAC2 0 H 264-YFN

Скачать через торрент Кондор Condor Фильм бесплатно в хорошем качестве torrent

Скачивайте на UnionPeer.org фильмы через торрент без регистрации. Новинки кино в хорошем качестве через торрент. На UnionPeer.org можно скачать через торрент фильмы 2014 и 2015 годов. Самые новые фильмы.

Скачать торрент Кондор Condor бесплатно через .torrent фильм мультфильм сериал

Статистика раздачи
Размер:  1.84 GB   |    Зарегистрирован:  10 дней   |    .torrent скачан:  29 раз   |   
Раздают:  1  
   
загрузка...
 
Автор Сообщение

Galfimbul

avatar Galfimbul


Кондор / Code Black

Год выпуска: 2018
Страна: США
Жанр: Триллер
Продолжительность: ~ 00:55:00
Перевод: Профессиональный (многоголосый закадровый) | Jaskier
Режиссёр: Эндрю МакКарти, Лоуренс Триллинг
В ролях:Макс Айронс, Лим Лубани, Кэтерин Каннингэм, Кристина Моусес, Мона Траоре, Стив Белфорд, Кейт Вернон, Далмар Абузейд, Кэлвин Десотелс
Описание: Молодой работник ЦРУ возвращается с обеда и обнаруживает, что все его коллеги были зверски убиты. Расследование преступления раскрывает шокирующие тайны и крупный заговор.

Качество: WEBRip 720p
Формат: MKV
Видео: 1280x720 (16:9) | X264 | ~4159 kbps | 23.976 fps
Аудио 1: AC3, 48,0 КГц, 6 ch, 384 kbps - [RUS]
Аудио 2: AC3, 48,0 КГц, 6 ch, 384 kbps - [ENG]
Реклама: Присутствует звуковая (два раза в начале и конце по 10 сек.)
Ссылка на предыдущие и альтернативные раздачи
Переведено и озвучено: студией Jaskier
Общее
Уникальный идентификатор                 : 64945206922671597029354018172569764550 (0x30DBFDEB9086A0058569EF0F2C81C2C6)
Полное имя                               : F:\Jaskier\Condor Season 1 (WEBRip l 720p l Jaskier)\Condor.S01E01.WEBRip.720p.Jaskier.mkv
Формат                                   : Matroska
Версия формата                           : Version 4 / Version 2
Размер файла                             : 1,84 Гбайт
Продолжительность                        : 53 м. 33 с.
Общий поток                              : 4929 Кбит/сек
Дата кодирования                         : UTC 2018-06-12 07:21:30
Программа кодирования                    : mkvmerge v19.0.0 ('Brave Captain') 64-bit
Библиотека кодирования                   : libebml v1.3.5 + libmatroska v1.4.8

Видео
Идентификатор                            : 1
Формат                                   : AVC
Формат/Информация                        : Advanced Video Codec
Профиль формата                          : [email protected]
Настройки формата                        : CABAC / 4 Ref Frames
Параметр CABAC формата                   : Да
Параметр RefFrames формата               : 4 кадра
Идентификатор кодека                     : V_MPEG4/ISO/AVC
Продолжительность                        : 53 м. 33 с.
Битрейт                                  : 4159 Кбит/сек
Ширина                                   : 1280 пикселей
Высота                                   : 720 пикселей
Соотношение сторон                       : 16:9
Режим частоты кадров                     : Постоянный
Частота кадров                           : 23,976 (24000/1001) кадра/сек
Цветовое пространство                    : YUV
Субдискретизация насыщенности            : 4:2:0
Битовая глубина                          : 8 бит
Тип развёртки                            : Прогрессивная
Бит/(Пиксели*Кадры)                      : 0.188
Размер потока                            : 1,56 Гбайт (84%)
Библиотека кодирования                   : Zencoder Video Encoding System
Default                                  : Да
Forced                                   : Нет
Цветовой диапазон                        : Limited
Основные цвета                           : BT.709
Характеристики трансфера                 : BT.709
Коэффициенты матрицы                     : BT.709

Аудио #1
Идентификатор                            : 2
Формат                                   : AC-3
Формат/Информация                        : Audio Coding 3
Идентификатор кодека                     : A_AC3
Продолжительность                        : 53 м. 33 с.
Вид битрейта                             : Постоянный
Битрейт                                  : 384 Кбит/сек
Каналы                                   : 6 каналов
Расположение каналов                     : Front: L C R, Side: L R, LFE
Частота                                  : 48,0 КГц
Частота кадров                           : 31,250 кадров/сек (1536 SPF)
Битовая глубина                          : 16 бит
Метод сжатия                             : С потерями
Размер потока                            : 147 Мбайт (8%)
Заголовок                                : Jaskier
Язык                                     : Russian
ServiceKind/String                       : Complete Main
Default                                  : Да
Forced                                   : Нет

Аудио #2
Идентификатор                            : 3
Формат                                   : AC-3
Формат/Информация                        : Audio Coding 3
Идентификатор кодека                     : A_AC3
Продолжительность                        : 53 м. 33 с.
Вид битрейта                             : Постоянный
Битрейт                                  : 384 Кбит/сек
Каналы                                   : 6 каналов
Расположение каналов                     : Front: L C R, Side: L R, LFE
Частота                                  : 48,0 КГц
Частота кадров                           : 31,250 кадров/сек (1536 SPF)
Битовая глубина                          : 16 бит
Метод сжатия                             : С потерями
Размер потока                            : 147 Мбайт (8%)
Язык                                     : English
ServiceKind/String                       : Complete Main
Default                                  : Нет
Forced                                   : Нет
Когда раздача ведётся путём добавления новых серий, при каждом добавлении создётся новый торрент. Чтобы начать докачку новой серии, пользователям необходимо сделать следующее:
(1) остановить скачивание,
(2) удалить старый торрент у себя из клиента (старые серии удалять не надо),
(3) скачать новый торрент и запустить его у себя в клиенте вместо старого, при этом указать клиенту путь в старую папку, куда и должно происходить скачивание новых серий.
Ваш клиент при этом должен произвести хеширование (проверку) старой папки (если не производит сам - помогите ему сделать это), и будет докачивать только те серии, которых у вас ещё нет. Старые серии при этом не удаляются, а продолжают раздаваться!
Eсли вы уже удалили старые серии, то предотвратить повторную закачку старых серий можно, отжав галочку в соответсвующих местах при запуске нового торрента. По возможности, желательно не удалять старые серии как можно дольше, чтобы релизёр не столько продолжал раздавать старые серии, а смог сконцентрироваться на новых.



Трекер:  [ 12-Июн-2018 10:48 ]

  

Скачать .torrent

Размер .torrent файла 19 KB


Размер: 1.84 GB
Хэш (hash) релиза: 56a5ac4b192ef38efa14775b872e66ea704f15a0
Подписка на обновления:

Торренты, похожие на Кондор Condor скачать торрент

Форум Название Автор Размер S L Добавлен
Зарубежные сериалы ·· Кондор / Condor / Сезон: 1 / Серии: 1 из 10 (Эндрю МакКарти, Лоуренс Триллинг) [2018, США, Триллер, WEBRip] MVO (Jaskier) + Original Galfimbul 709773312677 MB 0 0 1528787888

10:18

12-Июн-18

Еще никто не оставлял запись к записи скачать торрент Кондор Condor . Будь первым!

!Обратная связь