James Wright | Power Rangers Time Force | Next →

Скачать через торрент Индийское лето Indian Summers Фильм бесплатно в хорошем качестве torrent

Скачивайте на UnionPeer.org фильмы через торрент без регистрации. Новинки кино в хорошем качестве через торрент. На UnionPeer.org можно скачать через торрент фильмы 2014 и 2015 годов. Самые новые фильмы.

Скачать торрент Индийское лето Indian Summers бесплатно через .torrent фильм мультфильм сериал

Статистика раздачи
Размер:  9.66 GB   |    Зарегистрирован:  12 дней   |    .torrent скачан:  25 раз   |   
Раздают:  1  
   
загрузка...
 
Автор Сообщение

Galfimbul

avatar Galfimbul


Индийское лето / Indian Summers

Год выпуска: 2015
Страна: Великобритания
Жанр: исторический, драма, приключения
Продолжительность: 00:55:00

Перевод: Профессиональный (многоголосый закадровый) - ShowJet

Режиссёр: Ананд Такер, Пол Вильшурст, Дэйв Мур

В ролях: Александер Кобб, Оливия Грант, Генри Ллойд-Хьюз, Никеш Патель, Крейг Паркинсон, Эмбер Роуз Рева, Джемайма Уэст, Джули Уолтерс, Фиона Гласкотт, Айша Кала, Лиллет Даби и др.

Описание: Сериал «Индийское лето» переносит зрителя в далекий 1932 год, когда на дворе стоит теплый март, а вокруг представляет свои красоты великолепная Индия. Эта страна отличается своей яркостью, контрастностью и неповторимостью. Сериал раскроет ландшафты Индии, где все настолько красочно, что воображение даже отъявленных путешественников будет поражено. В это самое время в стране властью обладали британские чиновники. Целый субконтинент пребывал в их руках. На тот момент в стране их насчитывалось порядка нескольких тысяч. Но стоит лишь наступить несносно жаркому лету, как все чиновники стремились убраться куда подальше от своих жилищ, тем самым они перемещались в Гималаи. Но и оттуда они умудрялись продолжать свое правление страной. Вы сможете получить истинное наслаждение от небывалых красот тех мест, на фоне которых и будет раскрываться сюжет сериала.
Высокопоставленные чиновники и их семьи предпочитают жить в небольшом местечке под названием Шимла. А в Индии в это время начинается освободительное движение. Кто-то пишет краской революционные лозунги. Ганди сидит в тюрьме...
Англичанка Элис когда-то уже жила здесь, и теперь обстоятельства заставили ее вернуться, но уже не одну, а с ребенком, а её брат Ральф - претендент на должность вице-короля Индии...

Сэмпл
Ссылка на предыдущие и альтернативные раздачи

Качество: HDRip
Формат: AVI
Видео: 704x400 (1.76:1), 23.976 fps, XviD build 73 ~1999 kbps avg, 0.30 bit/pixel
Аудио: 48 kHz, AC3 Dolby Digital, 2/0 (L,R) ch, ~192 kbps - многоголосый
Аудио: 48 kHz, AC3 Dolby Digital, 2/0 (L,R) ch, ~192 kbps - оригинал
Субтитры: русские (полные (1-10 серии), форсированные на непереведенных сцен (2-9 серии))
Реклама: нет
General
Complete name : H:\Indian.Summers.205.webrip_[teko]\s01e01.avi
Format : AVI
Format/Info : Audio Video Interleave
File size : 1.25 GiB
Duration : 1h 14mn
Overall bit rate : 2 398 Kbps
Writing application : VirtualDubMod 1.5.10.3 | www.virtualdub-fr.org || (build 2550/release)
Writing library : VirtualDubMod build 2550/release

Video
ID : 0
Format : MPEG-4 Visual
Format profile : Advanced [email protected]
Format settings, BVOP : 2
Format settings, QPel : No
Format settings, GMC : No warppoints
Format settings, Matrix : Custom
Codec ID : XVID
Codec ID/Hint : XviD
Duration : 1h 14mn
Bit rate : 2 000 Kbps
Width : 704 pixels
Height : 400 pixels
Display aspect ratio : 16:9
Frame rate : 23.976 (23976/1000) fps
Color space : YUV
Chroma subsampling : 4:2:0
Bit depth : 8 bits
Scan type : Progressive
Compression mode : Lossy
Bits/(Pixel*Frame) : 0.296
Stream size : 1.04 GiB (83%)
Writing library : XviD 73

Audio #1
ID : 1
Format : AC-3
Format/Info : Audio Coding 3
Mode extension : CM (complete main)
Format settings, Endianness : Big
Codec ID : 2000
Duration : 1h 14mn
Bit rate mode : Constant
Bit rate : 192 Kbps
Channel(s) : 2 channels
Channel positions : Front: L R
Sampling rate : 48.0 KHz
Frame rate : 31.250 fps (1536 spf)
Compression mode : Lossy
Stream size : 102 MiB (8%)
Alignment : Split accross interleaves
Interleave, duration : 42 ms (1.00 video frame)
Interleave, preload duratio : 500 ms

Audio #2
ID : 2
Format : AC-3
Format/Info : Audio Coding 3
Mode extension : CM (complete main)
Format settings, Endianness : Big
Codec ID : 2000
Duration : 1h 14mn
Bit rate mode : Constant
Bit rate : 192 Kbps
Channel(s) : 2 channels
Channel positions : Front: L R
Sampling rate : 48.0 KHz
Frame rate : 31.250 fps (1536 spf)
Compression mode : Lossy
Stream size : 102 MiB (8%)
Alignment : Split accross interleaves
Interleave, duration : 42 ms (1.00 video frame)
Interleave, preload duratio : 500 ms
Релиз группы:





Трекер:  [ 12-Июн-2018 09:18 ]

  

Скачать .torrent

Размер .torrent файла 50 KB


Размер: 9.66 GB
Хэш (hash) релиза: 78e2cbbe54942131b866baf671bc3597c2de3655
Подписка на обновления:

Торренты, похожие на Индийское лето Indian Summers скачать торрент

Форум Название Автор Размер S L Добавлен
Зарубежные сериалы ·· Индийское лето / Indian Summers / Сезон: 1 / Серии: 1-10 из 10 (Ананд Такер, Пол Вильшурст, Дэйв Мур) [2015, Великобритания, история, драма, приключения, BDRip 1080p] MVO (DD 2.0 Showjet) + Original (Eng) + Subs (Rus) Galfimbul 4668077095743.47 GB 0 0 1527931093

12:18

2-Июн-18

Еще никто не оставлял запись к записи скачать торрент Индийское лето Indian Summers . Будь первым!

!Обратная связь