Alan Chun-Kwong Luk | Lauren Terp | Watch movie

Скачать через торрент Яблочки-пятки Фильм бесплатно в хорошем качестве torrent

Скачивайте на UnionPeer.org фильмы через торрент без регистрации. Новинки кино в хорошем качестве через торрент. На UnionPeer.org можно скачать через торрент фильмы 2014 и 2015 годов. Самые новые фильмы.

Скачать торрент Яблочки-пятки бесплатно через .torrent фильм мультфильм сериал

Статистика раздачи
Размер:  72 MB   |    Зарегистрирован:  12 дней   |    .torrent скачан:  35 раз   |   
Раздают:  1  
   
загрузка...
 
Автор Сообщение

Galfimbul

avatar Galfimbul


Яблочки-пятки

Страна: Россия
Жанр: мультфильм
Продолжительность: 00:13:00
Год выпуска: 2016

Режиссёр: Мария Соснина

Описание: Мультфильм для малышей по одноимённой книжке стихов Анастасии Орловой.

Качество: WEBRip-AVC
Формат: MP4
Видео: 643 kbps, 1280х720 (16:9), 25.000 fps, AVC ([email protected])
Аудио: 126 kbps, 44.1 kHz, 2 channels, AAC (LC)
Субтитры: отсутствуют
GeneralComplete name : Яблочки-пятки (2016).mp4Format : MPEG-4Format profile : Base Media / Version 2Codec ID : mp42File size : 71.8 MiBDuration : 13mn 0sOverall bit rate mode : VariableOverall bit rate : 772 KbpsEncoded date : UTC 2017-07-26 13:29:44Tagged date : UTC 2017-07-26 13:29:44gsst : 0gstd : 780051

VideoID : 1Format : AVCFormat/Info : Advanced Video CodecFormat profile : [email protected] settings, CABAC : YesFormat settings, ReFrames : 3 framesCodec ID : avc1Codec ID/Info : Advanced Video CodingDuration : 13mn 0sBit rate : 643 KbpsWidth : 1 280 pixelsHeight : 720 pixelsDisplay aspect ratio : 16:9Frame rate mode : ConstantFrame rate : 25.000 fpsColor space : YUVChroma subsampling : 4:2:0Bit depth : 8 bitsScan type : ProgressiveBits/(Pixel*Frame) : 0.028Stream size : 59.8 MiB (83%)Title : ISO Media file produced by Google Inc.Encoded date : UTC 2017-07-26 13:29:44Tagged date : UTC 2017-07-26 13:29:44Color primaries : BT.709Transfer characteristics : BT.709Matrix coefficients : BT.709

AudioID : 2Format : AACFormat/Info : Advanced Audio CodecFormat profile : LCCodec ID : 40Duration : 13mn 0sBit rate mode : VariableBit rate : 126 KbpsChannel(s) : 2 channelsChannel positions : Front: L RSampling rate : 44.1 KHzCompression mode : LossyStream size : 11.7 MiB (16%)Title : ISO Media file produced by Google Inc.Encoded date : UTC 2017-07-26 13:29:44Tagged date : UTC 2017-07-26 13:29:44


Трекер:  [ 12-Июн-2018 06:01 ]

  

Скачать .torrent

Размер .torrent файла 11 KB


Размер: 72 MB
Хэш (hash) релиза: 19a9acd5f9380c90a9d8e119963a4bd20913f203
Подписка на обновления:

Еще никто не оставлял запись к записи скачать торрент Яблочки-пятки . Будь первым!

!Обратная связь