Logiciel: Logiciel de bureau | Kung Fu Strike - The Warriors Rise | Monster Hunt 2

Скачать через торрент Животные инстинкты Animal instincts Фильм бесплатно в хорошем качестве torrent

Скачивайте на UnionPeer.org фильмы через торрент без регистрации. Новинки кино в хорошем качестве через торрент. На UnionPeer.org можно скачать через торрент фильмы 2014 и 2015 годов. Самые новые фильмы.

Скачать торрент Животные инстинкты Animal instincts бесплатно через .torrent фильм мультфильм сериал

Статистика раздачи
Размер:  36 MB   |    Зарегистрирован:  1 месяц 10 дней   |    .torrent скачан:  46 раз   |   
Раздают:  1  
   
загрузка...
 
Автор Сообщение

Galfimbul

avatar Galfimbul


Животные инстинкты / Animal instincts

Страна: США
Жанр: мультфильм, пародия
Продолжительность: 00:04:40
Год выпуска: 2007
Перевод: не требуется
Русские субтитры: нет

Режиссёры: Кэмерон Эдсер, Майкл Ричардс / Cameron Edser, Michael Richards

Описание: Крутая битва овцы и коровы, не поделивших корм.

Доп. информация: Шуточный мультфильм, пародирующий штампы фильмов жанра "экшн".

Качество: WEBRip
Формат: AVI
Видео: 944 kbps, 720х416 (1.731), 25.000 fps, MPEG-4 Visual (XviD)
Аудио: 128 kbps, 44.1 kHz, 2 channels, MPEG Audio (MP3)
Субтитры: отсутствуют
GeneralComplete name : Animal Instincts (2007).aviFormat : AVIFormat/Info : Audio Video InterleaveFile size : 36.1 MiBDuration : 4mn 40sOverall bit rate : 1 081 KbpsWriting library : VirtualDub build 35491/release

VideoID : 0Format : MPEG-4 VisualFormat profile : Advanced [email protected] settings, BVOP : 2Format settings, QPel : NoFormat settings, GMC : No warppointsFormat settings, Matrix : Default (H.263)Codec ID : XVIDCodec ID/Hint : XviDDuration : 4mn 40sBit rate : 944 KbpsWidth : 720 pixelsHeight : 416 pixelsDisplay aspect ratio : 1.731Frame rate : 25.000 fpsColor space : YUVChroma subsampling : 4:2:0Bit depth : 8 bitsScan type : ProgressiveCompression mode : LossyBits/(Pixel*Frame) : 0.126Stream size : 31.5 MiB (87%)Writing library : XviD 64

AudioID : 1Format : MPEG AudioFormat version : Version 1Format profile : Layer 3Mode : Joint stereoMode extension : MS StereoCodec ID : 55Codec ID/Hint : MP3Duration : 4mn 40sBit rate mode : ConstantBit rate : 128 KbpsChannel(s) : 2 channelsSampling rate : 44.1 KHzCompression mode : LossyStream size : 4.26 MiB (12%)Alignment : Split accross interleavesInterleave, duration : 40 ms (1.00 video frame)Interleave, preload duration : 501 ms


Трекер:  [ 12-Июн-2018 04:30 ]

  

Скачать .torrent

Размер .torrent файла 12 KB


Размер: 36 MB
Хэш (hash) релиза: aecb146329cdbad1756c76b492b61e749d401a09
Подписка на обновления:

Торренты, похожие на Животные инстинкты Animal instincts скачать торрент

Форум Название Автор Размер S L Добавлен
Мультфильмы до 2016 ·· Животные инстинкты / Animal Instincts (Cameron Edser, Michael Richards / Кэмерон Эдсер, Майкл Ричардс) [2007, анимация, пародия, WEBRip] Panky 2888937028 MB 0 0 1364826867

17:34

1-Апр-13

Мультфильмы до 2016 ·· Безграничный Бэтмен: Животные инстинкты / Batman Unlimited: Animal Instincts (Батч Лукич / Butch Lukic) [2015, мультфильм, боевик, BDRemux > DVD5 (Custom)] MVO + Original Eng + eng sub Galfimbul 46512660484.33 GB 0 0 1519130181

15:36

20-Фев-18

Мультфильмы до 2016 ·· Безграничный Бэтмен: Животные инстинкты / Batman Unlimited: Animal Instincts (Батч Лукич / Butch Lukic) [2015, мультфильм, боевик, приключения, BDRip 720p] Galfimbul 19525458511.82 GB 0 0 1432023630

11:20

19-Май-15

Мультфильмы до 2016 ·· Безграничный Бэтмен: Животные инстинкты / Batman Unlimited: Animal Instincts (Батч Лукич / Butch Lukic) [2015, мультфильм, боевик, приключения, BDRip] MVO Galfimbul 783216640747 MB 0 0 1431178063

16:27

9-Май-15

Мультфильмы до 2016 ·· Безграничный Бэтмен: Животные инстинкты / Batman Unlimited: Animal Instincts Батч Лукич / Butch Lukic) [2015, мультфильм, боевик, приключения, BDRip] DUB + ENG Galfimbul 15709859841.46 GB 0 0 1431143652

06:54

9-Май-15

Мультфильмы до 2016 ·· Безграничный Бэтмен: Животные инстинкты / Batman Unlimited: Animal Instincts (Батч Лукич / Butch Lukic) [2015, мультфильм, фэнтези, BDRip-AVC] MVO + Sub Eng + Original Eng Galfimbul 17051988521.59 GB 0 0 1431077000

12:23

8-Май-15

Мультфильмы до 2016 ·· Безграничный Бэтмен: Животные инстинкты / Batman Unlimited: Animal Instincts (Батч Лукич / Butch Lukic) [2015, мультфильм, боевик, приключения, BDRemux 1080p] MVO + Original Eng + eng sub Galfimbul 1361667741412.68 GB 0 0 1430985116

10:51

7-Май-15

Мультфильмы до 2016 ·· Безграничный Бэтмен: Животные инстинкты / Batman Unlimited: Animal Instincts (Батч Лукич) [2015, мультфильм, боевик, приключения, HDRip] Galfimbul 14706728961.37 GB 0 0 1430771168

23:26

4-Май-15

Еще никто не оставлял запись к записи скачать торрент Животные инстинкты Animal instincts . Будь первым!

!Обратная связь