Molly Schade | BD Kami nomi zo Shiru Sekai II The World God Only Knows Season 2 Subtitle Indonesia | Naomi Frenette

Скачать через торрент Аншлаг и Компания 2018.06.11 Фильм бесплатно в хорошем качестве torrent

Скачивайте на UnionPeer.org фильмы через торрент без регистрации. Новинки кино в хорошем качестве через торрент. На UnionPeer.org можно скачать через торрент фильмы 2014 и 2015 годов. Самые новые фильмы.

Скачать торрент Аншлаг и Компания 2018.06.11 бесплатно через .torrent фильм мультфильм сериал

Статистика раздачи
Размер:  10.57 GB   |    Зарегистрирован:  13 дней   |    .torrent скачан:  34 раза   |   
Раздают:  1  
   
загрузка...
 
Автор Сообщение

Galfimbul

avatar Galfimbul


Аншлаг и Компания 2018.06.11

Дата/Год выпуска: 2018
Страна: Россия
Жанр: Юмор
Продолжительность: 02:14:09
Перевод: Не требуется
Русские субтитры: нет

Оригинальная аудиодорожка: русский
Телеканал: Россия 1 HD
Описание: Уже с 1995 года "аншлаговцы" – привычная компания для телезрителей в Старый Новый год. Сегодня с лучшими номерами выступят постоянные участники и гости "Аншлага". Специально для этой программы ими были подготовлены новые номера. В программе участвуют: Владимир Винокур и театр пародии, Клара Новикова, Борис Моисеев, Сергей Дроботенко, Елена Воробей, Геннадий Ветров, Светлана Рожкова, Игорь Маменко, Николай Лукинский, Олег Акулич, Святослав Ещенко, группа "НЕКСТ-ББ" и др. Программу ведут: участницы театра-студии "Непоседы" и постоянная ведущая телепередачи "Аншлаг" Регина Дубовицкая.

качество: HDTV 1080i
формат: TS
Видео кодек: H.264
Аудио кодек: MP2
Видео: H264; 1920x1080 (16:9); 25.000 fps; ~10.5 Mb/s
Аудио: MPEG Audio 48000Hz stereo 192 Кбит/сек
GeneralID : 1 (0x1)Complete name : E:\1 HD канал\Аншлаг и Компания 2018.06.11.tsFormat : MPEG-TSFile size : 10.6 GiBDuration : 2 h 14 minOverall bit rate mode : VariableOverall bit rate : 11.3 Mb/s

VideoID : 2292 (0x8F4)Menu ID : 2291 (0x8F3)Format : AVCFormat/Info : Advanced Video CodecFormat profile : [email protected] settings : CABAC / 4 Ref FramesFormat settings, CABAC : YesFormat settings, RefFrames : 4 framesFormat settings, GOP : M=4, N=32Codec ID : 27Duration : 2 h 14 minBit rate : 10.5 Mb/sWidth : 1 920 pixelsHeight : 1 080 pixelsDisplay aspect ratio : 16:9Frame rate : 25.000 FPSStandard : ComponentColor space : YUVChroma subsampling : 4:2:0Bit depth : 8 bitsScan type : InterlacedScan type, store method : Separated fieldsScan order : Top Field FirstBits/(Pixel*Frame) : 0.203Stream size : 9.86 GiB (93%)Color range : LimitedColor primaries : BT.709Transfer characteristics : BT.709Matrix coefficients : BT.709

AudioID : 2295 (0x8F7)Menu ID : 2291 (0x8F3)Format : MPEG AudioFormat version : Version 1Format profile : Layer 2Codec ID : 3Duration : 2 h 14 minBit rate mode : ConstantBit rate : 192 kb/sChannel(s) : 2 channelsSampling rate : 48.0 kHzCompression mode : LossyStream size : 184 MiB (2%)Language : Russian
2


Трекер:  [ 12-Июн-2018 03:42 ]

  

Скачать .torrent

Размер .torrent файла 53 KB


Размер: 10.57 GB
Хэш (hash) релиза: 67b8b4dde820d1f9dfd3347659d7abcdf4ee9a34
Подписка на обновления:

Торренты, похожие на Аншлаг и Компания 2018.06.11 скачать торрент

Форум Название Автор Размер S L Добавлен
Развлекательные телепередачи и шоу ·· Аншлаг и Компания 2018.06.11 [2018, Юмор, HDTVRip720p] Galfimbul 27105816822.52 GB 0 0 1528872131

09:42

13-Июн-18

Еще никто не оставлял запись к записи скачать торрент Аншлаг и Компания 2018.06.11 . Будь первым!

!Обратная связь