Get Free Account | maximus_1 | Miss Peregrine's Home for Peculiar Children

Скачать через торрент Импульс Impulse Фильм бесплатно в хорошем качестве torrent

Скачивайте на UnionPeer.org фильмы через торрент без регистрации. Новинки кино в хорошем качестве через торрент. На UnionPeer.org можно скачать через торрент фильмы 2014 и 2015 годов. Самые новые фильмы.

Скачать торрент Импульс Impulse бесплатно через .torrent фильм мультфильм сериал

Статистика раздачи
Размер:  642 MB   |    Зарегистрирован:  12 дней   |    .torrent скачан:  49 раз   |   
Раздают:  1  
   
загрузка...
 
Автор Сообщение

Galfimbul

avatar Galfimbul


Импульс / Impulse

Год выпуска: 2018
Страна: США
Жанр: Триллер, драма, фантастика
Продолжительность: ~ 47 мин.
Перевод: Любительский (многоголосый закадровый) Baibako
Режиссёр: Даг Лайман
В ролях: Мэдди Хассон, Мисси Пайл, Сара Дежарден, Энука Окума, Крэйг Арнольд, Дэвид Джеймс Эллиотт и др.

Описание: 16-летняя Генри Коулс всю жизнь чувствовала себя «другой» и мечтала выбраться из душного маленького городка. Однажды она попадает в передрягу, вступив в конфликт с наркоторговцем. Происшествие меняет в ее жизни все и пробуждает в ней сверхъестественные способности к телепортации. Но радость омрачается появлением новых врагов, уже мелькающих на горизонте.
IMDb
Качество: WEB-DLRip
Контейнер: AVI
Видео: 704x352 (2.00:1), 23.976 fps, XviD build 50 ~1498 kbps avg, 0.25 bit/pixel
Аудио 1: 48 kHz, MPEG Layer 3, 2 ch, ~192.00 kbps avg (Rus)
Аудио 2: 48 kHz, MPEG Layer 3, 2 ch, ~192.00 kbps avg (Eng)
Субтитры: нет
Реклама: отсутствует
01. Pilot
Общее
Полное имя : D:\Видео\Релизы\Impulse\Impulse.S01E01.avi
Формат : AVI
Формат/Информация : Audio Video Interleave
Размер файла : 642 Мбайт
Продолжительность : 47 м. 17 с.
Общий поток : 1898 Кбит/сек
Программа кодирования : VirtualDubMod 1.5.10.2 (build 2540/release)
Библиотека кодирования : VirtualDubMod build 2540/release

Видео
Идентификатор : 0
Формат : MPEG-4 Visual
Профиль формата : Advanced [email protected]
Настройки формата : BVOP1
Параметр BVOP формата : 1
Параметр QPel формата : Нет
Параметр GMC формата : Без точки перехода
Параметр матрицы формата : Default (H.263)
Идентификатор кодека : XVID
Идентификатор кодека/Подсказка : XviD
Продолжительность : 47 м. 17 с.
Битрейт : 1500 Кбит/сек
Ширина : 704 пикселя
Высота : 352 пикселя
Соотношение сторон : 2,000
Частота кадров : 23,976 (24000/1001) кадра/сек
Цветовое пространство : YUV
Субдискретизация насыщенности : 4:2:0
Битовая глубина : 8 бит
Тип развёртки : Прогрессивная
Метод сжатия : С потерями
Бит/(Пиксели*Кадры) : 0.252
Размер потока : 507 Мбайт (79%)
Библиотека кодирования : XviD 1.2.1 (UTC 2008-12-04)

Аудио #1
Идентификатор : 1
Формат : MPEG Audio
Версия формата : Version 1
Профиль формата : Layer 3
Настройки формата : Joint stereo / MS Stereo
Идентификатор кодека : 55
Идентификатор кодека/Подсказка : MP3
Продолжительность : 47 м. 17 с.
Вид битрейта : Постоянный
Битрейт : 192 Кбит/сек
Каналы : 2 канала
Частота : 48,0 КГц
Частота кадров : 41,667 кадра/сек (1152 SPF)
Метод сжатия : С потерями
Размер потока : 64,9 Мбайт (10%)
Выравнивание : Соединение по промежуткам
Продолжительность промежутка : 42 мс. (1,00 видеокадр)
Время предзагрузки промежутка : 504 мс.

Аудио #2
Идентификатор : 2
Формат : MPEG Audio
Версия формата : Version 1
Профиль формата : Layer 3
Настройки формата : Joint stereo / MS Stereo
Идентификатор кодека : 55
Идентификатор кодека/Подсказка : MP3
Продолжительность : 47 м. 17 с.
Вид битрейта : Постоянный
Битрейт : 192 Кбит/сек
Каналы : 2 канала
Частота : 48,0 КГц
Частота кадров : 41,667 кадра/сек (1152 SPF)
Метод сжатия : С потерями
Размер потока : 64,9 Мбайт (10%)
Выравнивание : Соединение по промежуткам
Продолжительность промежутка : 42 мс. (1,00 видеокадр)
Время предзагрузки промежутка : 504 мс.


Трекер:  [ 12-Июн-2018 01:48 ]

  

Скачать .torrent

Размер .torrent файла 13 KB


Размер: 642 MB
Хэш (hash) релиза: 44f14563a28ff7c82cadee061f314396226b13bb
Подписка на обновления:

Еще никто не оставлял запись к записи скачать торрент Импульс Impulse . Будь первым!

!Обратная связь