Kanojo to Kanojo no Neko: Everything Flows | HEVC 720p Movies | Some Like It Hot 1959 BluRay 1080p DTS x264-HDS

Скачать порно через торрент Eguchi Hisashi no Nantoka Narudesho! Приколы от Эгучи Хисаши UnionPeer.org бесплатно онлайн HD качество

Скачать новое порно 2015, 2014 новинки через торрент UnionPeer.org

Порно торрент бесплатно ЮнионПир.орг

Статистика раздачи
Размер:  2.19 GB   |    Зарегистрирован:  13 дней   |    .torrent скачан:  93 раза   |   
Раздают:  1  
   
загрузка...
 
Автор Сообщение

Galfimbul

avatar Galfimbul


Eguchi Hisashi no Nantoka Narudesho!
江口寿史のNANTOKA NARUDESHO!
Приколы от Эгучи Хисаши

Год выпуска: 1990
Жанр: ecchi, comedy
Серии: ep. 1 of 1
Продолжительность: 46mn 04s VHSrip, 42mn 55s LDrip
Цензура: Этти - легкая эротика

Язык: Японский
Озвучка: Оригинальная

Автор оригинала: Eguchi Hisashi
Студия: Madhouse

Описание: Комедия с эротическим уклоном и живыми вставками.

anidb

Качество видео: VHSrip
Разрешение видео: 480p
Формат видео: AVI
Видео: 640-480, 4-3, 23.976 fps, DivX 5, 1635 kbps
Аудио: jpn, MP3, Stereo, 48.0 KHz, 128 Kbps
Качество видео: LDrip [Orphan-raw]
Разрешение видео: 480p
Формат видео: MKV
Видео: 640-480, 4-3, 23.976 fps, AVC, 2213 kbps
Аудио: jpn, AC-3, Stereo, 48.0 KHz, 384 Kbps
General
Complete name : 01_Eguchi_Hisashi_no_nantoka_narudesho!_[VHSrip][C975986D].avi
Format : AVI
Format/Info : Audio Video Interleave
File size : 585 MiB
Duration : 46mn 4s
Overall bit rate : 1 773 Kbps
Writing library : This file was made by AviUtl 0.99.

Video
ID : 0
Format : MPEG-4 Visual
Format settings, BVOP : 1
Format settings, QPel : No
Format settings, GMC : No warppoints
Format settings, Matrix : Default (H.263)
Muxing mode : Packed bitstream
Codec ID : DX50
Codec ID/Hint : DivX 5
Duration : 46mn 4s
Bit rate : 1 635 Kbps
Width : 640 pixels
Height : 480 pixels
Display aspect ratio : 4:3
Frame rate : 23.976 fps
Color space : YUV
Chroma subsampling : 4:2:0
Bit depth : 8 bits
Scan type : Progressive
Compression mode : Lossy
Bits/(Pixel*Frame) : 0.222
Stream size : 539 MiB (92%)
Writing library : DivX 5.1.1 (Maupiti) (UTC 2003-11-19)

Audio
ID : 1
Format : MPEG Audio
Format version : Version 1
Format profile : Layer 3
Mode : Joint stereo
Mode extension : MS Stereo
Codec ID : 55
Codec ID/Hint : MP3
Duration : 46mn 4s
Bit rate mode : Constant
Bit rate : 128 Kbps
Channel(s) : 2 channels
Sampling rate : 48.0 KHz
Compression mode : Lossy
Stream size : 42.2 MiB (7%)
Alignment : Split accross interleaves
Interleave, duration : 33 ms (0.80 video frame)
Interleave, preload duration : 41 ms
General
Unique ID : 226118971787085198939176657660403339926 (0xAA1CEE0C587DEAF2BCB739965FBD5296)
Complete name : 01_Eguchi_Hisashi_no_nantoka_narudesho!_[LDrip][Orphan-raw][36607A71].mkv
Format : Matroska
Format version : Version 4 / Version 2
File size : 798 MiB
Duration : 42 min 55 s
Overall bit rate : 2 599 kb/s
Encoded date : UTC 2017-08-14 16:04:40
Writing application : mkvmerge v8.3.0 (''Over the Horizon'') 64bit
Writing library : libebml v1.3.1 + libmatroska v1.4.2

Video
ID : 1
Format : AVC
Format/Info : Advanced Video Codec
Format profile : High [email protected]
Format settings : CABAC / 16 Ref Frames
Format settings, CABAC : Yes
Format settings, RefFrames : 16 frames
Codec ID : V_MPEG4/ISO/AVC
Duration : 42 min 55 s
Bit rate : 2 213 kb/s
Width : 640 pixels
Height : 480 pixels
Display aspect ratio : 4:3
Frame rate mode : Constant
Frame rate : 23.976 (24000/1001) FPS
Color space : YUV
Chroma subsampling : 4:2:0
Bit depth : 10 bits
Scan type : Progressive
Bits/(Pixel*Frame) : 0.300
Stream size : 680 MiB (85%)
Writing library : x264 core 148 r2744 b97ae06
Encoding settings : cabac=1 / ref=16 / deblock=1:0:0 / analyse=0x3:0x133 / me=umh / subme=10 / psy=1 / psy_rd=0.80:0.00 / mixed_ref=1 / me_range=24 / chroma_me=1 / trellis=2 / 8x8dct=1 / cqm=0 / deadzone=21,11 / fast_pskip=1 / chroma_qp_offset=-2 / threads=12 / lookahead_threads=2 / sliced_threads=0 / nr=0 / decimate=1 / interlaced=0 / bluray_compat=0 / stitchable=1 / constrained_intra=0 / bframes=8 / b_pyramid=2 / b_adapt=2 / b_bias=0 / direct=3 / weightb=1 / open_gop=0 / weightp=2 / keyint=240 / keyint_min=23 / scenecut=40 / intra_refresh=0 / rc_lookahead=60 / rc=crf / mbtree=1 / crf=17.0 / qcomp=0.60 / qpmin=0 / qpmax=81 / qpstep=4 / vbv_maxrate=62500 / vbv_bufsize=78125 / crf_max=0.0 / nal_hrd=none / filler=0 / ip_ratio=1.40 / aq=1:1.00
Default : Yes
Forced : No

Audio
ID : 2
Format : AC-3
Format/Info : Audio Coding 3
Codec ID : A_AC3
Duration : 42 min 55 s
Bit rate mode : Constant
Bit rate : 384 kb/s
Channel(s) : 2 channels
Channel positions : Front: L R
Sampling rate : 48.0 kHz
Frame rate : 31.250 FPS (1536 SPF)
Bit depth : 16 bits
Compression mode : Lossy
Stream size : 118 MiB (15%)
Language : Japanese
Service kind : Complete Main
Default : Yes
Forced : No

Eguchi Hisashi no Kotobuki Gorou Show
江口寿史の寿五郎ショウ
С наилучшими пожеланиями от Эгучи Хисаши

Год выпуска: 1991
Жанр: ecchi, comedy, parody
Серии: ep. 1-4 of 4
Продолжительность: 33mn 3s
Цензура: Этти - легкая эротика

Язык: Японский
Озвучка: Оригинальная

Режиссер: Iijima Masakatsu
Автор оригинала: Eguchi Hisashi

Описание: Продолжение. Эротика выходит на первый план. В конце появляется Годзилла.

anidb

Дополнительная информация: Все 4 серии в одном файле. В VHSrip видео 4-3 с чёрными полосами по бокам до 3-2.

Качество видео: VHSrip [ARR]
Разрешение видео: 480p
Формат видео: MKV
Видео: 720-480, 3-2, 23.976 fps, AVC, 1729 kbps
Аудио: jpn, AAC, Stereo, 48.0 KHz, 165 Kbps
Качество видео: LDrip [Orphan-raw]
Разрешение видео: 480p
Формат видео: MKV
Видео: 640-480, 4-3, 23.976 fps, AVC, 1336 kbps
Аудио: jpn, AC-3, Stereo, 48.0 KHz, 384 Kbps
General
Unique ID : 209431767562383752949920879551488323871 (0x9D8F175BDC5BE786F7F36C411E15F11F)
Complete name : 02_Eguchi_Hisashi_no_kotobuki_gorou_show_[VHSrip][ARR][CCA300C8].mkv
Format : Matroska
Format version : Version 2
File size : 443 MiB
Duration : 33mn 3s
Overall bit rate : 1 874 Kbps
Writing application : Lavf52.94.0
Writing library : Lavf52.94.0

Video
ID : 1
Format : AVC
Format/Info : Advanced Video Codec
Format profile : [email protected]
Format settings, CABAC : Yes
Format settings, ReFrames : 2 frames
Codec ID : V_MPEG4/ISO/AVC
Nominal bit rate : 1 729 Kbps
Width : 720 pixels
Height : 480 pixels
Display aspect ratio : 3:2
Frame rate mode : Variable
Standard : NTSC
Color space : YUV
Chroma subsampling : 4:2:0
Bit depth : 8 bits
Scan type : Progressive
Writing library : x264 core 112 r1834 a51816a
Encoding settings : cabac=1 / ref=1 / deblock=1:0:0 / analyse=0x1:0 / me=dia / subme=2 / psy=1 / psy_rd=0.00:0.00 / mixed_ref=0 / me_range=16 / chroma_me=1 / trellis=0 / 8x8dct=0 / cqm=0 / deadzone=21,11 / fast_pskip=1 / chroma_qp_offset=0 / threads=2 / sliced_threads=0 / nr=0 / decimate=1 / interlaced=0 / constrained_intra=0 / bframes=3 / b_pyramid=0 / b_adapt=1 / b_bias=0 / direct=3 / weightb=0 / open_gop=0 / weightp=2 / keyint=250 / keyint_min=25 / scenecut=40 / intra_refresh=0 / rc_lookahead=40 / rc=abr / mbtree=1 / bitrate=1729 / ratetol=1.0 / qcomp=0.60 / qpmin=10 / qpmax=51 / qpstep=4 / ip_ratio=1.41 / aq=1:1.00
Default : Yes
Forced : No

Audio
ID : 2
Format : AAC
Format/Info : Advanced Audio Codec
Format profile : LC
Codec ID : A_AAC
Duration : 33mn 3s
Channel(s) : 2 channels
Channel positions : Front: L R
Sampling rate : 48.0 KHz
Compression mode : Lossy
Delay relative to video : 64ms
Default : Yes
Forced : No
General
Unique ID : 189711272086280791176037413800547252772 (0x8EB90FDD41FFD868B37ABE654070FA24)
Complete name : 02_Eguchi_Hisashi_no_kotobuki_Gorou_show_[LDrip][Orphan-raw][2FB75D71].mkv
Format : Matroska
Format version : Version 4 / Version 2
File size : 413 MiB
Duration : 33 min 30 s
Overall bit rate : 1 722 kb/s
Encoded date : UTC 2017-09-25 05:04:56
Writing application : mkvmerge v8.3.0 (''Over the Horizon'') 64bit
Writing library : libebml v1.3.1 + libmatroska v1.4.2

Video
ID : 1
Format : AVC
Format/Info : Advanced Video Codec
Format profile : High [email protected]
Format settings : CABAC / 16 Ref Frames
Format settings, CABAC : Yes
Format settings, RefFrames : 16 frames
Codec ID : V_MPEG4/ISO/AVC
Duration : 33 min 30 s
Bit rate : 1 336 kb/s
Width : 640 pixels
Height : 480 pixels
Display aspect ratio : 4:3
Frame rate mode : Constant
Frame rate : 23.976 (24000/1001) FPS
Color space : YUV
Chroma subsampling : 4:2:0
Bit depth : 10 bits
Scan type : Progressive
Bits/(Pixel*Frame) : 0.181
Stream size : 320 MiB (78%)
Writing library : x264 core 148 r2744 b97ae06
Encoding settings : cabac=1 / ref=16 / deblock=1:0:0 / analyse=0x3:0x133 / me=umh / subme=10 / psy=1 / psy_rd=0.80:0.00 / mixed_ref=1 / me_range=24 / chroma_me=1 / trellis=2 / 8x8dct=1 / cqm=0 / deadzone=21,11 / fast_pskip=1 / chroma_qp_offset=-2 / threads=12 / lookahead_threads=2 / sliced_threads=0 / nr=0 / decimate=1 / interlaced=0 / bluray_compat=0 / stitchable=1 / constrained_intra=0 / bframes=8 / b_pyramid=2 / b_adapt=2 / b_bias=0 / direct=3 / weightb=1 / open_gop=0 / weightp=2 / keyint=240 / keyint_min=23 / scenecut=40 / intra_refresh=0 / rc_lookahead=60 / rc=crf / mbtree=1 / crf=17.0 / qcomp=0.60 / qpmin=0 / qpmax=81 / qpstep=4 / vbv_maxrate=62500 / vbv_bufsize=78125 / crf_max=0.0 / nal_hrd=none / filler=0 / ip_ratio=1.40 / aq=1:1.00
Default : Yes
Forced : No

Audio
ID : 2
Format : AC-3
Format/Info : Audio Coding 3
Codec ID : A_AC3
Duration : 33 min 30 s
Bit rate mode : Constant
Bit rate : 384 kb/s
Channel(s) : 2 channels
Channel positions : Front: L R
Sampling rate : 48.0 kHz
Frame rate : 31.250 FPS (1536 SPF)
Bit depth : 16 bits
Compression mode : Lossy
Stream size : 92.0 MiB (22%)
Title : Japanese, 2.0 AC3
Language : Japanese
Service kind : Complete Main
Default : Yes
Forced : No


Трекер:  [ 12-Июн-2018 00:30 ]

  

Скачать .torrent

Размер .torrent файла 12 KB


Размер: 2.19 GB
Хэш (hash) релиза: 7ee4a0d8b364b6a1a8fe007191447b841fa0f843

Еще никто не оставлял запись к записи скачать торрент Eguchi Hisashi no Nantoka Narudesho! Приколы от Эгучи Хисаши . Будь первым!

!Обратная связь