gostream | FRAMED.Collection-PLAZA | Watch movie

Скачать порно через торрент 25-sai no joshikousei The 25 Year Old High School Girl UnionPeer.org бесплатно онлайн HD качество

Скачать новое порно 2015, 2014 новинки через торрент UnionPeer.org

Порно торрент бесплатно ЮнионПир.орг

Статистика раздачи
Размер:  769 MB   |    Зарегистрирован:  10 дней   |    .torrent скачан:  231 раз   |   
Раздают:  1  
   
загрузка...
 
Автор Сообщение

Galfimbul

avatar Galfimbul


25-sai no joshikousei / 25歳の女子校生 / 25-year-old high school girl / 25-летняя старшеклассница

Год выпуска: 2018
Жанр: oral, titsjob, school, students, romance
Серии: ep. 1-12 of 12
Продолжительность: 6 min (12*6)
Цензура: Софткор

Язык: Японский
Озвучка: Оригинальная

Язык: Английский
Субтитры: Встроенные неотключаемые (хардсаб)

Режиссер: Hideki Oota
Автор оригинала: Makana
Студия: Suiseisha

Описание: В детстве многие из нас мечтали поскорее повзрослеть, но на самом деле взрослая жизнь больно бьёт по голове. И, нахватавшись по горло проблем, мы начинаем с грустью вспоминать о школьных днях, когда мы не ведали никаких забот. В такой ситуации оказалась и 25-летняя Хана Хатори. Сбившись с ног в поисках хоть какой-нибудь подходящей работы, она внезапно получает весьма необычное предложение от своих родственников. Её просят посещать школу вместо своей ленивой 16-летней двоюродной сестры! Недолго думая, Хана соглашается на эту авантюру.
Впрочем, притвориться своей сестрой у неё не вызывает трудностей. Хана очень молодо выглядит, да и с кузиной они похожи, словно две капли воды. Поэтому Хана быстро вливается в бурную школьную жизнь. Но тут её поджидает сюрприз. Один из учителей оказывается её бывшим одноклассником Акито Канье! И его ей провести не удалось, он быстро распознал в мошеннице Хану. Казалось бы, авантюра раскрыта, но Акито соглашается молчать. Но не бесплатно, конечно. Взамен на молчание Хана должна посещать внеклассные занятия Акито, и чем они там будут заниматься, одному богу известно.

Качество видео: HDRip
Разрешение видео: 1080p
Формат видео: MPEG
Видео: avc1/AVC, MPEG-4, 1920x1080, bit rate 1362, 23.976 fps ~1500Kbps
Аудио 1: AAC, 192 kbps, stereo 44.1 khz, Japanese
General
Format : MPEG-4
Format profile : Base Media / Version 2
Codec ID : mp42
File size : 68.7 MiB
Duration : 6mn 10s
Overall bit rate mode : Variable
Overall bit rate : 1 557 Kbps
Encoded date : UTC 2018-01-11 04:23:24
Tagged date : UTC 2018-01-11 04:23:24
gsst : 0
gstd : 370520
Video #1
ID : 1
Format : AVC
Format/Info : Advanced Video Codec
Format profile : [email protected]
Format settings, CABAC : Yes
Format settings, ReFrames : 1 frame
Codec ID : avc1
Codec ID/Info : Advanced Video Coding
Duration : 6mn 10s
Bit rate : 1 362 Kbps
Maximum bit rate : 7 056 Kbps
Width : 1 920 pixels
Height : 1 080 pixels
Display aspect ratio : 16:9
Frame rate mode : Constant
Frame rate : 23.976 fps
Color space : YUV
Chroma subsampling : 4:2:0
Bit depth : 8 bits
Scan type : Progressive
Bits/(Pixel*Frame) : 0.027
Stream size : 60.2 MiB (88%)
Tagged date : UTC 2018-01-11 04:23:30
Color primaries : BT.709-5, BT.1361, IEC 61966-2-4, SMPTE RP177
Transfer characteristics : BT.709-5, BT.1361
Matrix coefficients : BT.709-5, BT.1361, IEC 61966-2-4 709, SMPTE RP177
Audio #2
ID : 2
Format : AAC
Format/Info : Advanced Audio Codec
Format profile : LC
Codec ID : 40
Duration : 6mn 10s
Bit rate mode : Variable
Bit rate : 192 Kbps
Maximum bit rate : 201 Kbps
Channel(s) : 2 channels
Channel positions : Front: L R
Sampling rate : 44.1 KHz
Compression mode : Lossy
Stream size : 8.48 MiB (12%)
Title : IsoMedia File Produced by Google, 5-11-2011
Language : Japanese
Encoded date : UTC 2018-01-11 04:23:28
Tagged date : UTC 2018-01-11 04:23:30


Трекер:  [ 12-Июн-2018 00:01 ]

  

Скачать .torrent

Размер .torrent файла 17 KB


Размер: 769 MB
Хэш (hash) релиза: 0413b0fe448f6e2e32469a56e82fa7f337e941fb

Еще никто не оставлял запись к записи скачать торрент 25-sai no joshikousei The 25 Year Old High School Girl . Будь первым!

!Обратная связь