IMDb: 5.5 HD The Incantation | The 100 (2014) | IMDb: 7.8 S5E2 Cold Justice - Season 5

Скачать через торрент Ривердейл Ривердэйл Фильм бесплатно в хорошем качестве torrent

Скачивайте на UnionPeer.org фильмы через торрент без регистрации. Новинки кино в хорошем качестве через торрент. На UnionPeer.org можно скачать через торрент фильмы 2014 и 2015 годов. Самые новые фильмы.

Скачать торрент Ривердейл Ривердэйл бесплатно через .torrent фильм мультфильм сериал

Статистика раздачи
Размер:  2.56 GB   |    Зарегистрирован:  2 месяца 6 дней   |    .torrent скачан:  59 раз   |   
Раздают:  1  
   
загрузка...
 
Автор Сообщение

Galfimbul

avatar Galfimbul


Ривердейл / Ривердэйл / Riverdale
«A great place to get away with it all»
Страна: США
Год выпуска: 2017
Жанр: драма, криминал, детектив
Продолжительность: ~ 00:46:00 мин серия
Перевод: Профессиональный (многоголосый закадровый) |LostFilm|
Премьера (мир): 21 июля 2016
Режиссер: Ли Толанд Кригер, Роб Шейденгланц, Кевин Родни Салливан
В главных ролях: Кей-Джей Апа, Лили Рейнхарт, Камила Мендес, Коул Спроус, Мэделин Петш, Эшли Мюррэй, Мэдхен Амик, Люк Перри, Марисоль Николс, Росс Батлер, Кейси Котт, Коуди Кирсли, Сара Хабель, Айри Хайлеу, Локлин Манро, Ашанти Бромфилд, Оливия Райан Штерн, Кэйтлин Митчелл-Маркович, Мейджор Курда, Робин Гивенс, Тревор Стайнс, Натали Болтт, Барклей Хоуп, Тиера Сковбай, Колин Лоуренс, Джордан Кэллоуэй, Элвин Сандерс, Том Макбет, Адайн Брэдли, Шеннон Пёрсер, Скит Ульрих, Роб Рако, Рауль Кастильо, Молли Рингуолд
Описание фильма:
Сериал расскажет о жизни и приключениях жизнерадостного и никогда не унывающего подростка Арчи Эндрюса, а также Бэтти Купер, Вероники Лодж и их друзей из Ривердейла. Действие разворачивается в современном мире, а главные герои решают исследовать сокрытую от посторонних сторону жизни маленького мирного городка со всеми его странностями и тёмными тайнами, прячущимися за праздничным фасадом.

<div class="post-box-default">
<div class="post-box" style="border-color: #d2d2d2; background: #000000;">Предыдущие и альтернативные раздачи</div>
</div>

Качество видео: BDRip
Формат: AVI
Видео: XviD, 720x400 (16:9), 23.976 fps, ~2000 kbps, 0.29 Bits/Pixel
Аудио Rus: AC-3, 48,0 kHz, 6 ch, 384 kb/s |LostFilm|
Аудио Eng: AC-3, 48,0 kHz, 6 ch, 384 kb/s |Original|
Субтитры: Английские
<div class="post-box-default">
<div class="post-box" style="border-color: #d2d2d2; background: #000000;">Реклама: Отсутствует</div>
</div>

Релиз:
Работа со звуком: serial_M

ОбщееПолное имя : E:\_Сериалы\_Сериалы\Ривердейл\Riverdale.S01.BDRip.Rus.Eng.Casstudio\Riverdale.S01E01.BDRip.Rus.Eng.Casstudio.aviФормат : AVIФормат/Информация : Audio Video InterleaveРазмер файла : 933 МбайтПродолжительность : 46 м. 49 с.Общий поток : 2785 Кбит/секПрограмма кодирования : VirtualDubMod 1.5.10.3 | www.virtualdub-fr.org || (build 2550/release)Библиотека кодирования : VirtualDubMod build 2550/release

ВидеоИдентификатор : 0Формат : MPEG-4 VisualПрофиль формата : Advanced [email protected]Настройки формата : BVOP1Параметр BVOP формата : 1Параметр QPel формата : НетПараметр GMC формата : Без точки переходаПараметр матрицы формата : Default (MPEG)Идентификатор кодека : XVIDИдентификатор кодека/Подсказка : XviDПродолжительность : 46 м. 49 с.Битрейт : 2003 Кбит/секШирина : 720 пикселейВысота : 400 пикселейСоотношение сторон : 16:9Частота кадров : 23,976 (24000/1001) кадра/секЦветовое пространство : YUVСубдискретизация насыщенности : 4:2:0Битовая глубина : 8 битТип развёртки : ПрогрессивнаяМетод сжатия : С потерямиБит/(Пиксели*Кадры) : 0.290Размер потока : 671 Мбайт (72%)Библиотека кодирования : XviD 1.2.1 (UTC 2008-12-04)

Аудио #1Идентификатор : 1Формат : AC-3Формат/Информация : Audio Coding 3Идентификатор кодека : 2000Продолжительность : 46 м. 49 с.Вид битрейта : ПостоянныйБитрейт : 384 Кбит/секКаналы : 6 каналовРасположение каналов : Front: L C R, Side: L R, LFEЧастота : 48,0 КГцЧастота кадров : 31,250 кадров/сек (1536 SPF)Битовая глубина : 16 битМетод сжатия : С потерямиРазмер потока : 129 Мбайт (14%)Выравнивание : Разделение по промежуткамПродолжительность промежутка : 42 мс. (1,00 видеокадр)Время предзагрузки промежутка : 500 мс.ServiceKind/String : Complete Main

Аудио #2Идентификатор : 2Формат : AC-3Формат/Информация : Audio Coding 3Идентификатор кодека : 2000Продолжительность : 46 м. 49 с.Вид битрейта : ПостоянныйБитрейт : 384 Кбит/секКаналы : 6 каналовРасположение каналов : Front: L C R, Side: L R, LFEЧастота : 48,0 КГцЧастота кадров : 31,250 кадров/сек (1536 SPF)Битовая глубина : 16 битМетод сжатия : С потерямиРазмер потока : 129 Мбайт (14%)Выравнивание : Разделение по промежуткамПродолжительность промежутка : 42 мс. (1,00 видеокадр)Время предзагрузки промежутка : 500 мс.ServiceKind/String : Complete Main


1. Открыть торрент
2. Снять галки с тех файлов торрента, которые мы не хотим закачивать. Оставляем только на нужных нам файлах (файле).
3. Нажать О.К.

В клиенте utorrent

Инструкция

1) Открыть торрент


2) Снять галки с тех файлов торрента, которые мы не хотим закачивать:

* либо вручную, снимая с каждого файла галку( скрин №1)
* либо, нажав кнопку "Снять метки (Select None)", сняв сразу со всех файлов(скрин №2)
№1
№2
Оставляем только на нужных нам файлах (файле).
3)Нажать О.К

Приятного просмотра!!!


Трекер:  [ 11-Июн-2018 23:48 ]

  

Скачать .torrent

Размер .torrent файла 13 KB


Размер: 2.56 GB
Хэш (hash) релиза: d603481f73342b1cd7b19e6a73ae163ddb30f611
Подписка на обновления:

Еще никто не оставлял запись к записи скачать торрент Ривердейл Ривердэйл . Будь первым!

!Обратная связь