ver El hombre que mató a Don Quijote (2018) DD5.1. x264 película completa | ver El hombre que mató a Don Quijote (2018) película completa | Ver El hombre que mató a Don Quijote (2018) película en línea gratis en Netflix

Скачать через торрент Жирным шрифтом The Bold Type Фильм бесплатно в хорошем качестве torrent

Скачивайте на UnionPeer.org фильмы через торрент без регистрации. Новинки кино в хорошем качестве через торрент. На UnionPeer.org можно скачать через торрент фильмы 2014 и 2015 годов. Самые новые фильмы.

Скачать торрент Жирным шрифтом The Bold Type бесплатно через .torrent фильм мультфильм сериал

Статистика раздачи
Размер:  1.72 GB   |    Зарегистрирован:  14 дней   |    .torrent скачан:  27 раз   |   
Раздают:  1  
   
загрузка...
 
Автор Сообщение

Galfimbul

avatar Galfimbul


Жирным шрифтом - Второй сезон
The Bold Type - The Second Season
Год выпуска: 2018
Страна: США
Производство: Freeform
Жанр: драма
Продолжительность: 00:45:00
Перевод: Профессиональный (многоголосый закадровый) Jaskier
Автор идеи: Сара Уотсон / Sarah Watson
В ролях: Кейти Стивенс, Аиша Ди, Меган Фой, Сэм Пейдж, Мэтт Уорд, Мелора Хардин, Николь Бушери, Адам Каприоло, Стивен Конрад Мур, Ева Авила, Стефани Коста и др.
Описание: Сюжет сериала расскажет о первых шагах в индустрии главного редактора журнала Cosmopolitan и исполнительного директора по контенту Hearst Magazine Джоанны Коулз. В центре внимания проекта оказываются три девушки, представляющие один современный модный журнал. Героини живут в Нью-Йорке и наслаждаются своим оглушительным успехом на работе. Однако в личной жизни пока что все не так хорошо и радужно, как могло бы показаться. Главные героини стремятся за всеми новинками моды, забывая о естественности и природной красоте. Нередко на их пути попадаются состоятельные мужчины, которых волнует лишь их светский образ. Однако главные героини начинают понимать, что в жизни самое главное не карьера. Да и дружба не должна уходить на второе место! Посмотрим, получится ли им покорить мужчин своей мечты.
Все раздачи | КиноПоиск | IMDb | Sample
<div class="post-box-default">
<div class="post-box">Рекламы нет</div>
</div>
Качество: WEB-DL 1080p (NTb)
Формат: MKV
Видео: x264, 1920x1080 (16:9), 23.976 fps, ~5640 kbps avg, 0.113 bit/pixel
Аудио #1: Russian 48.0 KHz, AC3, 2/0 (Front: L R) ch, ~192.00 kbps avg |Jaskier|
Аудио #2: English 48.0 KHz, AAC, 2/0 (Front: L R) ch, ~64.00 kbps avg |Original|
Субтитры: английские
Сборка и работа со звуком - whip93.
General
Unique ID : 137796347927590721111416709523763260218 (0x67AA9C7C326A9E473F046CAA1D6A6B3A)
Complete name : D:\Фильмы\The Bold Type - The Complete 2nd Season - whip93\The.Bold.Type.S02E01.Feminist.Army.1080p.WEB-DL.DD2.0.H.264.-whip93.mkv
Format : Matroska
Format version : Version 4 / Version 2
File size : 1.72 GiB
Duration : 41 min 49 s
Overall bit rate : 5 897 kb/s
Movie name : Жирным шрифтом | The Bold Type (S02E01) - Release by whip93
Encoded date : UTC 2018-06-11 13:56:27
Writing application : mkvmerge v22.0.0 ('At The End Of The World') 64-bit
Writing library : libebml v1.3.5 + libmatroska v1.4.8

Video
ID : 1
Format : AVC
Format/Info : Advanced Video Codec
Format profile : [email protected]
Format settings : CABAC / 4 Ref Frames
Format settings, CABAC : Yes
Format settings, ReFrames : 4 frames
Codec ID : V_MPEG4/ISO/AVC
Duration : 41 min 49 s
Bit rate : 5 639 kb/s
Width : 1 920 pixels
Height : 1 080 pixels
Display aspect ratio : 16:9
Frame rate mode : Constant
Frame rate : 23.976 (24000/1001) FPS
Color space : YUV
Chroma subsampling : 4:2:0
Bit depth : 8 bits
Scan type : Progressive
Bits/(Pixel*Frame) : 0.113
Stream size : 1.65 GiB (96%)
Title : NTb's WEB-DL
Language : English
Default : Yes
Forced : No

Audio #1
ID : 2
Format : AC-3
Format/Info : Audio Coding 3
Codec ID : A_AC3
Duration : 41 min 49 s
Bit rate mode : Constant
Bit rate : 192 kb/s
Channel(s) : 2 channels
Channel positions : Front: L R
Sampling rate : 48.0 kHz
Frame rate : 31.250 FPS (1536 SPF)
Bit depth : 16 bits
Compression mode : Lossy
Stream size : 57.4 MiB (3%)
Title : MVO (Jaskier)
Language : Russian
Service kind : Complete Main
Default : Yes
Forced : No

Audio #2
ID : 3
Format : AAC
Format/Info : Advanced Audio Codec
Format profile : HE-AAC / LC
Format settings : Explicit
Codec ID : A_AAC-2
Duration : 41 min 49 s
Bit rate : 64.0 kb/s
Channel(s) : 2 channels
Channel positions : Front: L R
Sampling rate : 48.0 kHz / 24.0 kHz
Frame rate : 23.438 FPS (1024 SPF)
Compression mode : Lossy
Stream size : 19.1 MiB (1%)
Title : Original
Language : English
Default : No
Forced : No

Text
ID : 4
Format : UTF-8
Codec ID : S_TEXT/UTF8
Codec ID/Info : UTF-8 Plain Text
Duration : 41 min 15 s
Bit rate : 93 b/s
Count of elements : 885
Stream size : 28.3 KiB (0%)
Title : Original
Language : English
Default : No
Forced : No

Menu
00:00:00.000 : en:Chapter 1
00:10:33.666 : en:Chapter 2
00:18:35.583 : en:Chapter 3
00:22:37.000 : en:Chapter 4
00:29:04.625 : en:Chapter 5
00:36:25.125 : en:Chapter 6
Когда раздача ведётся путём добавления новых серий, при каждом добавлении создаётся новый торрент. Чтобы начать докачку новой серии, пользователям необходимо сделать следующее:
(1) остановить скачивание,
(2) удалить старый торрент у себя из клиента (старые серии удалять не надо),
(3) скачать новый торрент и запустить его у себя в клиенте вместо старого, при этом указать клиенту путь в старую папку, куда и должно происходить скачивание новых серий.
Ваш клиент при этом должен произвести хеширование (проверку) старой папки (если не производит сам - помогите ему сделать это), и будет докачивать только те серии, которых у вас ещё нет. Старые серии при этом не удаляются, а продолжают раздаваться!
Если вы уже удалили старые серии, то предотвратить повторную закачку старых серий можно, отжав галочку в соответствующих местах при запуске нового торрента. По возможности, желательно не удалять старые серии как можно дольше, чтобы релизер не столько продолжал раздавать старые серии, а смог сконцентрироваться на новых.



Трекер:  [ 11-Июн-2018 19:48 ]

  

Скачать .torrent

Размер .torrent файла 17 KB


Размер: 1.72 GB
Хэш (hash) релиза: 3ca4dd006701bae502c3f86cac08ef7ebd4371db
Подписка на обновления:

Торренты, похожие на Жирным шрифтом The Bold Type скачать торрент

Форум Название Автор Размер S L Добавлен
Зарубежные сериалы ·· Жирным шрифтом / The Bold Type / Сезон: 1 / Серии: 1-2 из 9 (Сара Уотсон / Sarah Watson) [2017, США, драма, WEBRip-AVC] MVO (Baibako) + Original Eng + Subs (Rus, Eng) Galfimbul 19638392011.83 GB 0 0 1499957628

17:53

13-Июл-17

Еще никто не оставлял запись к записи скачать торрент Жирным шрифтом The Bold Type . Будь первым!

!Обратная связь