Manga VOSTFR | Dirty Jobs – Arbeit, die keiner machen will | Neo Tokyo (1987)

Скачать через торрент Черная комедия Black-ish Фильм бесплатно в хорошем качестве torrent

Скачивайте на UnionPeer.org фильмы через торрент без регистрации. Новинки кино в хорошем качестве через торрент. На UnionPeer.org можно скачать через торрент фильмы 2014 и 2015 годов. Самые новые фильмы.

Скачать торрент Черная комедия Black-ish бесплатно через .torrent фильм мультфильм сериал

Статистика раздачи
Размер:  37.65 GB   |    Зарегистрирован:  10 дней   |    .torrent скачан:  28 раз   |   
Раздают:  1  
   
загрузка...
 
Автор Сообщение

Galfimbul

avatar Galfimbul


Черная комедия / Black-ish

Год выпуска: 2016
Страна: США
Жанр: Комедия
Продолжительность: ~ 00:21:00

Перевод: Профессиональный (многоголосый закадровый) Кириллица

Режиссёр: Джеймс Гриффитс, Ребекка Эшер
В ролях: Энтони Андерсон, Трэйси Эллис Росс, Яра Шахиди, Маркус Скрибнер, Майлз Браун, Марсаи Мартин, Лоуренс Фишборн, Питер Маккензи, Кристофер Гриффин, Ли Буш

Описание: Андре «Дре» Джонсон — член совета управляющих корпорации. Он живет «американской мечтой»: отличная карьера, четверо красивых детей, дом в колониальном стиле в районе для верхнего среднего класса. Но однажды Дре начинает видеть свою идеальную жизнь совершенно по-другому…



Релиз: Beer kolesik Drinkers (Films.Club)

Ссылка на предыдущие и альтернативные раздачи / Сэмпл

Качество: WEB-DL 1080p (Amazon)
Контейнер: MKV
Видео: H.264, 1920x1080 (16:9), 23.976 fps, 12.5 Mbps (0.252 bit/pixel)
Аудио 1: AC3, 48 kHz, 2ch, 192 kbps (Кириллица)
Аудио 2: E-AC3, 48 kHz, 6 ch, 640 kbps (Original)
Субтитры: английские
Реклама: Нет
Complete name : D:\Black-ish.S01.1080p.AMZN\Black-ish.S01E01.1080p.AMZN.mkv
Format : Matroska
Format version : Version 4 / Version 2
File size : 2.01 GiB
Duration : 21 min 31 s
Overall bit rate mode : Variable
Overall bit rate : 13.4 Mb/s
Encoded date : UTC 2018-06-10 15:30:24
Writing application : mkvmerge v9.9.0 ('Pick Up') 32bit
Writing library : libebml v1.3.4 + libmatroska v1.4.5

Video
ID : 1
Format : AVC
Format/Info : Advanced Video Codec
Format profile : [email protected]
Format settings : CABAC / 4 Ref Frames
Format settings, CABAC : Yes
Format settings, RefFrames : 4 frames
Codec ID : V_MPEG4/ISO/AVC
Duration : 21 min 31 s
Bit rate mode : Variable
Bit rate : 12.5 Mb/s
Maximum bit rate : 15.0 Mb/s
Width : 1 920 pixels
Height : 1 080 pixels
Display aspect ratio : 16:9
Frame rate mode : Constant
Frame rate : 23.976 (24000/1001) FPS
Color space : YUV
Chroma subsampling : 4:2:0
Bit depth : 8 bits
Scan type : Progressive
Bits/(Pixel*Frame) : 0.252
Stream size : 1.88 GiB (94%)
Writing library : x264 core 148 r2623 d5b2374
Encoding settings : cabac=1 / ref=4 / deblock=1:-1:-1 / analyse=0x3:0x133 / me=umh / subme=9 / psy=1 / psy_rd=1.00:0.15 / mixed_ref=1 / me_range=24 / chroma_me=1 / trellis=2 / 8x8dct=1 / cqm=0 / deadzone=21,11 / fast_pskip=1 / chroma_qp_offset=-3 / threads=34 / lookahead_threads=5 / sliced_threads=0 / nr=150 / decimate=1 / interlaced=0 / bluray_compat=0 / constrained_intra=0 / bframes=8 / b_pyramid=2 / b_adapt=2 / b_bias=0 / direct=3 / weightb=1 / open_gop=0 / weightp=2 / keyint=120 / keyint_min=61 / scenecut=0 / intra_refresh=0 / rc_lookahead=120 / rc=crf / mbtree=1 / crf=18.0 / qcomp=0.60 / qpmin=0 / qpmax=69 / qpstep=4 / vbv_maxrate=15000 / vbv_bufsize=31250 / crf_max=0.0 / nal_hrd=vbr / filler=0 / ip_ratio=1.40 / aq=3:1.00
Language : English
Default : Yes
Forced : No
Color range : Limited
Color primaries : BT.709
Transfer characteristics : BT.709
Matrix coefficients : BT.709

Audio #1
ID : 2
Format : AC-3
Format/Info : Audio Coding 3
Format settings, Endianness : Big
Codec ID : A_AC3
Duration : 21 min 31 s
Bit rate mode : Constant
Bit rate : 192 kb/s
Channel(s) : 2 channels
Channel positions : Front: L R
Sampling rate : 48.0 kHz
Frame rate : 31.250 FPS (1536 SPF)
Bit depth : 16 bits
Compression mode : Lossy
Stream size : 29.6 MiB (1%)
Title : MVO (Кириллица)
Language : Russian
Service kind : Complete Main
Default : Yes
Forced : No

Audio #2
ID : 3
Format : E-AC-3
Format/Info : Enhanced Audio Coding 3
Format settings, Endianness : Big
Codec ID : A_EAC3
Duration : 21 min 31 s
Bit rate mode : Constant
Bit rate : 640 kb/s
Channel(s) : 6 channels
Channel positions : Front: L C R, Side: L R, LFE
Sampling rate : 48.0 kHz
Frame rate : 187.500 FPS (256 SPF)
Compression mode : Lossy
Stream size : 98.6 MiB (5%)
Title : Original
Language : English
Service kind : Complete Main
Default : No
Forced : No

Text
ID : 4
Format : UTF-8
Codec ID : S_TEXT/UTF8
Codec ID/Info : UTF-8 Plain Text
Duration : 21 min 20 s
Bit rate : 126 b/s
Count of elements : 585
Stream size : 19.7 KiB (0%)
Title : Full
Language : English
Default : No
Forced : No


Трекер:  [ 11-Июн-2018 19:48 ]

  

Скачать .torrent

Размер .torrent файла 97 KB


Размер: 37.65 GB
Хэш (hash) релиза: 00c78d495815cac0572b91e01b2deeb6668f1688
Подписка на обновления:

Еще никто не оставлял запись к записи скачать торрент Черная комедия Black-ish . Будь первым!

!Обратная связь