Watch movie | Science-Fiction | saison 2, épisode 11

Скачать через торрент ЛЕГО Ниндзяго Фильм The LEGO Ninjago Movie Фильм бесплатно в хорошем качестве torrent

Скачивайте на UnionPeer.org фильмы через торрент без регистрации. Новинки кино в хорошем качестве через торрент. На UnionPeer.org можно скачать через торрент фильмы 2014 и 2015 годов. Самые новые фильмы.

Скачать торрент ЛЕГО Ниндзяго Фильм The LEGO Ninjago Movie бесплатно через .torrent фильм мультфильм сериал

Статистика раздачи
Размер:  4.38 GB   |    Зарегистрирован:  12 дней   |    .torrent скачан:  26 раз   |   
Раздают:  1  
   
загрузка...
 
Автор Сообщение

Galfimbul

avatar Galfimbul


ЛЕГО Ниндзяго Фильм / The LEGO Ninjago Movie

Страна: США, Дания
Студия: LEGO System A/S, Lin Pictures, Lord Miller, RatPac-Dune Entertainment
Жанр: мультфильм, боевик, комедия, приключения, семейный
Год выпуска: 2017
Продолжительность: 01:41:26

Перевод: дубляж
Субтитры: русские (на надписи, полные), английские
Оригинальная аудиодорожка: английская

Режиссер: Чарли Бин / Charlie Bean, Пол Фишер / Paul Fisher, Боб Логан / Bob Logan

В ролях: Джеки Чан, Дэйв Франко, Фред Армисен, Кумэйл Нанджиани, Майкл Пенья, Эбби Джейкобсон, Зак Вудс, Дэвид Берроуз, Джастин Теру

Описание: Ниндзяго-сити призывает на свою защиту юного Ллойда, он же Зеленый ниндзя, и его друзей, тайных воинов и Великих мастеров ЛЕГО. Под предводительством кунг-фу мастера Ву, столь же умного, сколь и остроумного, они должны одолеть злобного диктатора Гармадона, Самого Злодейского Злодея, который оказывается отцом Ллойда. Роботы против роботов, сын против отца; эпическое столкновение проверит на прочность эту неистовую, но не самую дисциплинированную команду современных ниндзя, которые должны научиться усмирять свое самомнение, чтобы по полной проявить свои способности.

Доп. информация: Навигация по главам присутствует.

Сэмпл: http://yadi.sk/i/VsJhEV4s3XkwWu

Тип релиза: BDRip 720p
Контейнер: MKV
Видео кодек: H.264
Аудио кодек: DTS, AC-3
Видео: MPEG4/AVC, 2.40:1, 23.976 (24000/1001) FPS, 1280x536p, 4225 kb/s
Аудио 1: RUS / AC-3, 48.0 kHz, 5.1, 448 kb/s | дубляж [лицензия Blu-ray disc 1080p EUR]
Аудио 2: ENG / DTS, 48.0 kHz, 5.1, 1509 kb/s | оригинал [Blu-ray disc 1080p EUR]
Формат субтитров: softsub (SRT)
Релиз:
x264 [info]: profile High, level 4.1
x264 [info]: frame I:1671 Avg QP:13.89 size:114605
x264 [info]: frame P:34485 Avg QP:15.87 size: 48103
x264 [info]: frame B:109777 Avg QP:17.47 size: 12428
x264 [info]: consecutive B-frames: 3.2% 2.4% 11.2% 32.5% 16.2% 22.0% 5.1% 4.3% 3.0%

Формат : Matroska
Версия формата : Version 4 / Version 2
Размер файла : 4,38 Гбайт
Продолжительность : 1 ч. 41 м.
Общий поток : 6185 Кбит/сек
Название фильма : The.LEGO.Ninjago.Movie.2017.BDREMUX.1080p - rip from RUTRACKER
Дата кодирования : UTC 2018-06-11 13:39:01
Программа кодирования : mkvmerge v24.0.0 ('Beyond The Pale') 32-bit
Библиотека кодирования : libebml v1.3.6 + libmatroska v1.4.9
Обложка : Yes
Attachments : cover.jpg

Видео
Идентификатор : 1
Формат : AVC
Формат/Информация : Advanced Video Codec
Профиль формата : [email protected]
Настройки формата : CABAC / 12 Ref Frames
Параметр CABAC формата : Да
Параметр RefFrames формата : 12 кадров
Идентификатор кодека : V_MPEG4/ISO/AVC
Продолжительность : 1 ч. 41 м.
Битрейт : 4225 Кбит/сек
Ширина : 1280 пикселей
Высота : 536 пикселей
Соотношение сторон : 2,40:1
Режим частоты кадров : Постоянный
Частота кадров : 23,976 (24000/1001) кадра/сек
Цветовое пространство : YUV
Субдискретизация насыщенности : 4:2:0
Битовая глубина : 8 бит
Тип развёртки : Прогрессивная
Бит/(Пиксели*Кадры) : 0.257
Размер потока : 2,99 Гбайт (68%)
Заголовок : The.LEGO.Ninjago.Movie.2017.BDREMUX.1080p - ripped by <<LION1234>>
Библиотека кодирования : x264 core 152 r2851 ba24899
Настройки программы : cabac=1 / ref=12 / deblock=1:-3:-3 / analyse=0x3:0x113 / me=umh / subme=10 / psy=1 / psy_rd=1.00:0.00 / mixed_ref=1 / me_range=24 / chroma_me=1 / trellis=2 / 8x8dct=1 / cqm=0 / deadzone=21,11 / fast_pskip=1 / chroma_qp_offset=-2 / threads=6 / lookahead_threads=1 / sliced_threads=0 / nr=0 / decimate=0 / interlaced=0 / bluray_compat=0 / constrained_intra=0 / bframes=8 / b_pyramid=2 / b_adapt=2 / b_bias=0 / direct=1 / weightb=1 / open_gop=0 / weightp=2 / keyint=250 / keyint_min=23 / scenecut=40 / intra_refresh=0 / rc_lookahead=60 / rc=crf / mbtree=0 / crf=15.1 / qcomp=0.64 / qpmin=0 / qpmax=69 / qpstep=4 / vbv_maxrate=62500 / vbv_bufsize=78125 / crf_max=0.0 / nal_hrd=none / filler=0 / ip_ratio=1.40 / pb_ratio=1.30 / aq=1:0.75
Default : Да
Forced : Нет

Аудио #1
Идентификатор : 2
Формат : AC-3
Формат/Информация : Audio Coding 3
Идентификатор кодека : A_AC3
Продолжительность : 1 ч. 41 м.
Вид битрейта : Постоянный
Битрейт : 448 Кбит/сек
Каналы : 6 каналов
Расположение каналов : Front: L C R, Side: L R, LFE
Частота : 48,0 КГц
Частота кадров : 31,250 кадров/сек (1536 SPF)
Битовая глубина : 16 бит
Метод сжатия : С потерями
Размер потока : 325 Мбайт (7%)
Заголовок : русский дубляж [лицензия Blu-ray disc 1080p EUR]
Язык : Russian
ServiceKind/String : Complete Main
Default : Да
Forced : Нет

Аудио #2
Идентификатор : 3
Формат : DTS
Формат/Информация : Digital Theater Systems
Идентификатор кодека : A_DTS
Продолжительность : 1 ч. 41 м.
Вид битрейта : Постоянный
Битрейт : 1509 Кбит/сек
Каналы : 6 каналов
Расположение каналов : Front: L C R, Side: L R, LFE
Частота : 48,0 КГц
Частота кадров : 93,750 кадра/сек (512 SPF)
Битовая глубина : 24 бит
Метод сжатия : С потерями
Размер потока : 1,07 Гбайт (24%)
Заголовок : английский [оригинал Blu-ray disc 1080p EUR]
Язык : English
Default : Нет
Forced : Нет

Текст #1
Идентификатор : 4
Формат : UTF-8
Идентификатор кодека : S_TEXT/UTF8
Идентификатор кодека/Информация : UTF-8 Plain Text
Продолжительность : 1 ч. 12 м.
Битрейт : 1 бит/сек
ElementCount : 20
Размер потока : 770 байт (0%)
Заголовок : русские (на надписи)
Язык : Russian
Default : Нет
Forced : Нет

Текст #2
Идентификатор : 5
Формат : UTF-8
Идентификатор кодека : S_TEXT/UTF8
Идентификатор кодека/Информация : UTF-8 Plain Text
Продолжительность : 1 ч. 40 м.
Битрейт : 123 бит/сек
ElementCount : 1783
Размер потока : 91,4 Кбайт (0%)
Заголовок : русские (полные)
Язык : Russian
Default : Нет
Forced : Нет

Текст #3
Идентификатор : 6
Формат : UTF-8
Идентификатор кодека : S_TEXT/UTF8
Идентификатор кодека/Информация : UTF-8 Plain Text
Продолжительность : 1 ч. 35 м.
Битрейт : 80 бит/сек
ElementCount : 2043
Размер потока : 55,8 Кбайт (0%)
Заголовок : английские
Язык : Russian
Default : Нет
Forced : Нет

Меню
00:00:00.000 : :Chapter 01
00:11:44.746 : :Chapter 02
00:23:32.453 : :Chapter 03
00:31:09.785 : :Chapter 04
00:40:53.368 : :Chapter 05
00:53:48.392 : :Chapter 06
01:03:05.532 : :Chapter 07
01:16:07.688 : :Chapter 08
01:25:13.608 : :Chapter 09
01:32:10.900 : :Chapter 10
Source------------------------------LION1234
Замена звука на лицензионный.

Трекер:  [ 11-Июн-2018 17:01 ]

  

Скачать .torrent

Размер .torrent файла 11 KB


Размер: 4.38 GB
Хэш (hash) релиза: a2f2fcada7921e16efec673233268e8117814d9b
Подписка на обновления:

Торренты, похожие на ЛЕГО Ниндзяго Фильм The LEGO Ninjago Movie скачать торрент

Форум Название Автор Размер S L Добавлен
Мультфильмы 2016-2018 (Новинки мультфильмов) ·· ЛЕГО Ниндзяго Фильм / The LEGO Ninjago Movie (Чарли Бин, Пол Фишер, Боб Логан) [2017 г., мультфильм, боевик, комедия, приключения, семейный, BDRip 1080p] DUB | Лицензия Galfimbul 83065562957.74 GB 0 0 1518956609

15:23

18-Фев-18

Мультфильмы до 2016 ·· ЛЕГО Ниндзяго Фильм / The LEGO Ninjago Movie (Чарли Бин / Charlie Bean, Пол Фишер / Paul Fisher, Боб Логан / Bob Logan) [2017, США, мультфильм, боевик, комедия, приключения, семейный, BDRip-AVC] Dub Galfimbul 15654694181.46 GB 0 0 1514585232

01:07

30-Дек-17

Мультфильмы до 2016 ·· ЛЕГО Ниндзяго Фильм / The LEGO Ninjago Movie (Чарли Бин / Charlie Bean, Пол Фишер / Paul Fisher, Боб Логан / Bob Logan) [2017, Дания, США, мультфильм, боевик, комедия, приключения, семейный, BDRip] Dub Galfimbul 782490634746 MB 0 0 1514385421

17:37

27-Дек-17

Мультфильмы до 2016 ·· ЛЕГО Ниндзяго Фильм / The LEGO Ninjago Movie (Чарли Бин / Charlie Bean, Пол Фишер / Paul Fisher, Боб Логан / Bob Logan) [2017, Дания, США, мультфильм, боевик, комедия, приключения, семейный, BDRip] Dub + Sub (Rus, Eng) + Original Eng Galfimbul 23399243182.18 GB 0 0 1514360225

10:37

27-Дек-17

Мультфильмы 2016-2018 (Новинки мультфильмов) ·· ЛЕГО Ниндзяго Фильм / The LEGO Ninjago Movie (Чарли Бин, Пол Фишер, Боб Логан) [2017, мультфильм, боевик, комедия, приключения, семейный, BBDRip] iTunes Galfimbul 782490634746 MB 0 0 1514357437

09:50

27-Дек-17

Мультфильмы до 2016 ·· ЛЕГО Ниндзяго Фильм / The LEGO Ninjago Movie (Чарли Бин / Charlie Bean, Пол Фишер / Paul Fisher, Боб Логан / Bob Logan) [2017, Дания, США, мультфильм, боевик, комедия, приключения, семейный, BDRip] Dub Galfimbul 15640064001.46 GB 0 0 1514351202

08:06

27-Дек-17

Мультфильмы 2016-2018 (Новинки мультфильмов) ·· ЛЕГО Ниндзяго Фильм / The LEGO Ninjago Movie (Чарли Бин, Пол Фишер, Боб Логан) [2017, мультфильм, боевик, комедия, приключения, семейный, BDRemux 1080p] iTunes Galfimbul 1990238496818.54 GB 0 0 1514318430

23:00

26-Дек-17

Мультфильмы 2016-2018 (Новинки мультфильмов) ·· ЛЕГО Ниндзяго Фильм / The LEGO Ninjago Movie (Чарли Бин, Пол Фишер, Боб Логан) [2017, мультфильм, боевик, комедия, приключения, семейный, BDRip 1080p] iTunes Galfimbul 82578198977.69 GB 0 0 1514317306

22:41

26-Дек-17

Мультфильмы 2016-2018 (Новинки мультфильмов) ·· ЛЕГО Ниндзяго Фильм / The LEGO Ninjago Movie (Чарли Бин, Пол Фишер, Боб Логан) [2017, мультфильм, боевик, комедия, приключения, семейный, BDRip 720p] iTunes Galfimbul 40585493883.78 GB 0 0 1514317280

22:41

26-Дек-17

Мультфильмы 2016-2018 (Новинки мультфильмов) ·· ЛЕГО Ниндзяго Фильм / The LEGO Ninjago Movie (Чарли Бин, Пол Фишер, Боб Логан) [2017 г., мультфильм, боевик, комедия, приключения, семейный, WEBRip 1080p] DUB | Чистый звук Galfimbul 38200183663.56 GB 0 0 1508320320

12:52

18-Окт-17

Мультфильмы 2016-2018 (Новинки мультфильмов) ·· ЛЕГО Ниндзяго Фильм / The LEGO Ninjago Movie (Чарли Бин, Пол Фишер, Боб Логан) [2017 г., мультфильм, боевик, комедия, приключения, семейный, WEBRip 720p] DUB | Чистый звук Galfimbul 32604729033.04 GB 0 0 1508320305

12:51

18-Окт-17

Мультфильмы 2016-2018 (Новинки мультфильмов) ·· ЛЕГО Ниндзяго Фильм / The LEGO Ninjago Movie (Чарли Бин, Пол Фишер, Боб Логан) [2017 г., мультфильм, боевик, комедия, приключения, семейный, WEBRip] DUB | Чистый звук Galfimbul 14679449601.37 GB 0 0 1508320302

12:51

18-Окт-17

3D Мультфильмы ·· ЛЕГО Ниндзяго Фильм 3Д / The LEGO Ninjago Movie 3D (Чарли Бин / Charlie Bean, Пол Фишер / Paul Fisher, Боб Логан / Bob Logan) [2017, Дания, США, мультфильм, боевик, комедия, приключения, семейный, Blu-ray disc 1080p] [3D Only] [EUR] Galfimbul 3320945049630.93 GB 0 0 1517744192

14:36

4-Фев-18

3D Мультфильмы ·· ЛЕГО Ниндзяго Фильм в 3Д / The LEGO Ninjago Movie 3D (Чарли Бин, Пол Фишер, Боб Логан / Charlie Bean, Paul Fisher, Bob Logan) [2017, Мультфильм, Боевик, Комедия, Приключения, Семейный, BDrip] Half OverUnder / Вертикальная анаморфная стереопара Galfimbul 70602120676.58 GB 0 0 1517744178

14:36

4-Фев-18

3D Мультфильмы ·· ЛЕГО Ниндзяго Фильм в 3Д / The LEGO Ninjago Movie 3D (Чарли Бин, Пол Фишер, Боб Логан / Charlie Bean, Paul Fisher, Bob Logan) [2017, Мультфильм, Боевик, Комедия, Приключения, Семейный, BDRip, 1080p] OverUnder / Вертикальная стереопара Galfimbul 87783844718.18 GB 0 0 1517739351

13:15

4-Фев-18

Еще никто не оставлял запись к записи скачать торрент ЛЕГО Ниндзяго Фильм The LEGO Ninjago Movie . Будь первым!

!Обратная связь