Willie Nelson - Laying My Burdens Down (1970) [email protected] | Winter Ave Zoli | True Conviction - Season 1

Скачать через торрент Tomb Raider: Лара Крофт Tomb Raider бесплатно русская версия torrent активатор

Статистика раздачи
Размер:  1.28 GB   |    Зарегистрирован:  13 дней   |    .torrent скачан:  31 раз   |   
Раздают:  1  
   
загрузка...
 
Автор Сообщение

Galfimbul

avatar Galfimbul


Tomb Raider: Лара Крофт / Tomb Raider
«Her legend begins»

6.295 / 10 6.50 / 10
Год выпуска: 2018
Страна: США
Жанр: Фэнтези, боевик, приключения
Продолжительность: 01:57:50

Перевод: Дублированный (Лицензия)
Оригинальная аудиодорожка: Есть
Cубтитры: Русские форсированные, Русские, Английские
Режиссёр: Роар Утхауг
Сценарий: Женева Робертсон-Дуорет, Алистер Сиддонс, Ивэн Догерти
Продюсер: Грэм Кинг, Женевьева Хофмайер, Ной Хьюз
Оператор: Джордж Ричмонд
Композитор: Джанки Экс-Эл
Художник: Гари Фриман, Том Браун, Клер Флеминг
Монтаж: Стюарт Бейрд, Том Харрисон-Рид, Майкл Троник
В ролях: Алисия Викандер, Доминик Уэст, Уолтон Гоггинс, Дэниэл Ву, Кристин Скотт Томас, Дерек Джекоби, Александр Виллауме, Тамер Барджаг, Эдриан Коллинз, Кинэн Эррисон

Бюджет: $94 000 000
Сборы в России: $7 407 699

Мировая премьера: 2 марта 2018
Премьера (РФ): 15 марта 2018, «Каро-Премьер»

Цифровой релиз: 18 июня 2018, «Warner Bros.»

Описание: Лара Крофт — весьма самостоятельная дочь эксцентричного искателя приключений, который пропал, едва она стала подростком. Теперь ей двадцать один, она бесцельно проживает свою жизнь, курьером рассекая на байке по забитым улицам восточного Лондона. Решительно настроенная пробиться сама, она отказывается брать на себя руководство глобальной империей отца, столь же категорично отвергая мысль о том, что он действительно пропал. Слыша советы о том, что ей нужно смириться с этим фактом и жить дальше после семи лет бесплодных поисков, Лара уже и сама не понимает, что же заставляет ее распутывать обстоятельства его таинственного исчезновения.
Качество исходника: BDRemux (BlueBird)
Качество: BDRip
Тип: SD (480p)
Контейнер: M4V
Видео: H.264, 640x356 анаморф 852х356, 2.40:1, 1 300 Kbps, 23.976 (24000/1001) fps

Аудио 1: Русский/Дублированный (Лицензия), AAC / 2.0 / 128 Kbps / 48.0 KHz
Аудио 2: Английский/Оригинальная дорожка , AAC / 2.0 / 128 Kbps / 48.0 KHz

Субтитры 1: Русские форсированные
Субтитры 2: Русские полные
Субтитры 3: Английские полные
Sort Name: Tomb Raider
XID: Apple:vendor_id:2018-446136
contentID: 1348879664
Copyright: © 2018 Warner Bros. Entertainment Inc. and Metro-Goldwyn-Mayer Pictures Inc. All Rights Reserved.
Screenwriters: Женева Робертсон-Дуорет, Алистер Сиддонс, Ивэн Догерти
Producers: Грэм Кинг, Женевьева Хофмайер, Ной Хьюз
Director: Роар Утхауг
Cast: Алисия Викандер, Доминик Уэст, Уолтон Гоггинс, Дэниэл Ву, Кристин Скотт Томас, Дерек Джекоби, Александр Виллауме, Тамер Барджаг, Эдриан Коллинз, Кинэн Эррисон
Studio: MGM
Rating: 4
Long Description: Лара Крофт — весьма самостоятельная дочь эксцентричного искателя приключений, который пропал, едва она стала подростком. Теперь ей двадцать один, она бесцельно проживает свою жизнь, курьером рассекая на байке по забитым улицам восточного Лондона. Решительно настроенная пробиться сама, она отказывается брать на себя руководство глобальной империей отца, столь же категорично отвергая мысль о том, что он действительно пропал. Слыша советы о том, что ей нужно смириться с этим фактом и жить дальше после семи лет бесплодных поисков, Лара уже и сама не понимает, что же заставляет ее распутывать обстоятельства его таинственного исчезновения.
Description: Лара Крофт — весьма самостоятельная дочь эксцентричного искателя приключений, который пропал, едва она стала подростком. Теперь ей двадцать один, она бесцельно проживает свою жизнь, курьером рассекая на байке по забитым улицам восточного Лондона.
Release Date: 2018-03-16T07:00:00Z
Genre: Action & Adventure
Artist: Roar Uthaug
Name: Tomb Raider (2018)
General
Complete name                            : /Users/imac/HandBrake/Tomb.Raider.(480p).(pk).m4v
Format                                   : MPEG-4
Codec ID                                 : M4V  (M4V /M4A /mp42/isom)
File size                                : 1.28 GiB
Duration                                 : 1h 57mn
Overall bit rate mode                    : Variable
Overall bit rate                         : 1 559 Kbps
Movie name                               : Tomb Raider (2018)
Performer                                : Roar Uthaug
Director                                 : Роар Утхауг
Actor                                    : Алисия Викандер / Доминик Уэст / Уолтон Гоггинс / Дэниэл Ву / Кристин Скотт Томас / Дерек Джекоби / Александр Виллауме / Тамер Барджаг / Эдриан Коллинз / Кинэн Эррисон
Screenplay by                            : Женева Робертсон-Дуорет / Алистер Сиддонс / Ивэн Догерти
Producer                                 : Грэм Кинг / Женевьева Хофмайер / Ной Хьюз
Production studio                        : MGM
Genre                                    : Action & Adventure
ContentType                              : Short Film
Description                              : Лара Крофт — весьма самостоятельная дочь эксцентричного искателя приключений, который пропал, едва она стала подростком. Теперь ей двадцать один, она бесцельно проживает свою жизнь, курьером рассекая на байке по забитым улицам восточного Лондона.
Recorded date                            : UTC 2018-03-16 07:00:00
Encoded date                             : UTC 2018-06-11 12:50:47
Tagged date                              : UTC 2018-06-11 12:52:58
Copyright                                : © 2018 Warner Bros. Entertainment Inc. and Metro-Goldwyn-Mayer Pictures Inc. All Rights Reserved.
Cover                                    : Yes
Rating                                   : None
Title/Sort                               : Tomb Raider
LongDescription                          : Лара Крофт — весьма самостоятельная дочь эксцентричного искателя приключений, который пропал, едва она стала подростком. Теперь ей двадцать один, она бесцельно проживает свою жизнь, курьером рассекая на байке по забитым улицам восточного Лондона. Решительно настроенная пробиться сама, она отказывается брать на себя руководство глобальной империей отца, столь же категорично отвергая мысль о том, что он действительно пропал. Слыша советы о том, что ей нужно смириться с этим фактом и жить дальше после семи лет бесплодных поисков, Лара уже и сама не понимает, что же заставляет ее распутывать обстоятельства его таинственного исчезновения.
AppleStoreCatalogID                      : 1348879664
Vendor                                   : Apple:vendor_id:2018-446136
ContentRating                            : mpaa|PG-13|300|

Video #1
ID                                       : 1
Format                                   : AVC
Format/Info                              : Advanced Video Codec
Format profile                           : [email protected]
Format settings                          : 2 Ref Frames
Format settings, CABAC                   : No
Format settings, ReFrames                : 2 frames
Codec ID                                 : avc1
Codec ID/Info                            : Advanced Video Coding
Duration                                 : 1h 57mn
Bit rate                                 : 1 300 Kbps
Width                                    : 640 pixels
Height                                   : 356 pixels
Display aspect ratio                     : 2.40:1
Frame rate mode                          : Variable
Frame rate                               : 23.976 (24000/1001) fps
Minimum frame rate                       : 23.974 fps
Maximum frame rate                       : 23.981 fps
Color space                              : YUV
Chroma subsampling                       : 4:2:0
Bit depth                                : 8 bits
Scan type                                : Progressive
Bits/(Pixel*Frame)                       : 0.238
Stream size                              : 1.07 GiB (83%)
Title                                    : Main Program
Writing library                          : x264 core 155 r2893 b00bcaf
Encoding settings                        : cabac=0 / ref=2 / deblock=1:0:0 / analyse=0x1:0x111 / me=umh / subme=6 / psy=1 / psy_rd=1.00:0.00 / mixed_ref=1 / me_range=16 / chroma_me=1 / trellis=0 / 8x8dct=0 / cqm=0 / deadzone=21,11 / fast_pskip=1 / chroma_qp_offset=-2 / threads=11 / lookahead_threads=1 / sliced_threads=0 / nr=0 / decimate=1 / interlaced=0 / bluray_compat=0 / constrained_intra=0 / bframes=0 / weightp=0 / keyint=240 / keyint_min=24 / scenecut=40 / intra_refresh=0 / rc_lookahead=40 / rc=2pass / mbtree=1 / bitrate=1300 / ratetol=1.0 / qcomp=0.60 / qpmin=0 / qpmax=69 / qpstep=4 / cplxblur=20.0 / qblur=0.5 / vbv_maxrate=5000 / vbv_bufsize=5000 / nal_hrd=none / filler=0 / ip_ratio=1.40 / aq=1:1.00
Language                                 : English
Encoded date                             : UTC 2018-06-11 12:50:47
Tagged date                              : UTC 2018-06-11 12:50:52
Color range                              : Limited
Color primaries                          : BT.709
Transfer characteristics                 : BT.709
Matrix coefficients                      : BT.709
Menus                                    : 7,8

Video #2
ID                                       : 8
Format                                   : JPEG
Codec ID                                 : jpeg
Duration                                 : 1h 57mn
Bit rate mode                            : Variable
Bit rate                                 : 584 bps
Width                                    : 640 pixels
Height                                   : 267 pixels
Display aspect ratio                     : 2.40:1
Frame rate mode                          : Variable
Frame rate                               : 0.002 fps
Minimum frame rate                       : 0.001 fps
Maximum frame rate                       : 0.003 fps
Color space                              : YUV
Chroma subsampling                       : 4:2:0
Bit depth                                : 8 bits
Compression mode                         : Lossy
Bits/(Pixel*Frame)                       : 1.709
Stream size                              : 428 KiB (0%)
Title                                    : Chapter Images
Language                                 : English
Default                                  : No
Encoded date                             : UTC 2018-06-11 12:50:58
Tagged date                              : UTC 2018-06-11 12:50:58
Menu For                                 : 1
ColorSpace_ICC                           : RGB

Audio #1
ID                                       : 2
Format                                   : AAC
Format/Info                              : Advanced Audio Codec
Format profile                           : LC
Codec ID                                 : mp4a-40-2
Duration                                 : 1h 57mn
Source duration                          : 1h 57mn
Bit rate mode                            : Variable
Bit rate                                 : 126 Kbps
Maximum bit rate                         : 195 Kbps
Channel(s)                               : 2 channels
Channel positions                        : Front: L R
Sampling rate                            : 48.0 KHz
Frame rate                               : 46.875 fps (1024 SPF)
Compression mode                         : Lossy
Stream size                              : 106 MiB (8%)
Source stream size                       : 106 MiB (8%)
Title                                    : Russian Stereo
Language                                 : Russian
Default                                  : Yes
Alternate group                          : 1
Encoded date                             : UTC 2018-06-11 12:50:47
Tagged date                              : UTC 2018-06-11 12:50:56
Subtitles                                : 4,5

Audio #2
ID                                       : 3
Format                                   : AAC
Format/Info                              : Advanced Audio Codec
Format profile                           : LC
Codec ID                                 : mp4a-40-2
Duration                                 : 1h 57mn
Source duration                          : 1h 57mn
Bit rate mode                            : Variable
Bit rate                                 : 127 Kbps
Maximum bit rate                         : 192 Kbps
Channel(s)                               : 2 channels
Channel positions                        : Front: L R
Sampling rate                            : 48.0 KHz
Frame rate                               : 46.875 fps (1024 SPF)
Compression mode                         : Lossy
Stream size                              : 107 MiB (8%)
Source stream size                       : 107 MiB (8%)
Title                                    : English Stereo
Language                                 : English
Default                                  : No
Alternate group                          : 1
Encoded date                             : UTC 2018-06-11 12:50:47
Tagged date                              : UTC 2018-06-11 12:50:56

Text #1
ID                                       : 4
Format                                   : Timed Text
Muxing mode                              : sbtl
Codec ID                                 : tx3g
Duration                                 : 1h 52mn
Bit rate mode                            : Variable
Bit rate                                 : 2 bps
Stream size                              : 1.41 KiB (0%)
Title                                    : Russian forced
Language                                 : Russian
Default                                  : Yes
Forced                                   : Yes
Alternate group                          : 2
Encoded date                             : UTC 2018-06-11 12:50:47
Tagged date                              : UTC 2018-06-11 12:50:55
Subtitles For                            : 2
Full Alternative                         : 5

Text #2
ID                                       : 5
Format                                   : Timed Text
Muxing mode                              : sbtl
Codec ID                                 : tx3g
Duration                                 : 1h 52mn
Bit rate mode                            : Variable
Bit rate                                 : 46 bps
Stream size                              : 37.6 KiB (0%)
Title                                    : Russian full
Language                                 : Russian
Default                                  : No
Forced                                   : No
Alternate group                          : 2
Encoded date                             : UTC 2018-06-11 12:50:47
Tagged date                              : UTC 2018-06-11 12:50:55
Subtitles For                            : 2
Forced Alternative                       : 4

Text #3
ID                                       : 6
Format                                   : Timed Text
Muxing mode                              : sbtl
Codec ID                                 : tx3g
Duration                                 : 1h 51mn
Bit rate mode                            : Variable
Bit rate                                 : 33 bps
Stream size                              : 27.2 KiB (0%)
Title                                    : English full
Language                                 : English
Default                                  : No
Forced                                   : No
Alternate group                          : 2
Encoded date                             : UTC 2018-06-11 12:50:47
Tagged date                              : UTC 2018-06-11 12:50:55

Menu #1
00:00:00.000                             : 00:00:00.000
00:13:13.251                             : 00:13:13.251
00:24:04.234                             : 00:24:04.234
00:31:57.999                             : 00:31:57.999
00:39:57.061                             : 00:39:57.061
00:50:31.070                             : 00:50:31.070
01:04:49.844                             : 01:04:49.844
01:13:58.100                             : 01:13:58.100
01:20:17.396                             : 01:20:17.396
01:27:41.131                             : 01:27:41.131
01:38:41.624                             : 01:38:41.624
01:51:17.421                             : 01:51:17.421

Menu #2
ID                                       : 7
Codec ID                                 : text
Duration                                 : 1h 57mn
Language                                 : English
Encoded date                             : UTC 2018-06-11 12:50:56
Tagged date                              : UTC 2018-06-11 12:50:56
Bit rate mode                            : CBR
Menu For                                 : 1
00:00:00.000                             : 00:00:00.000
00:13:13.251                             : 00:13:13.251
00:24:04.234                             : 00:24:04.234
00:31:57.999                             : 00:31:57.999
00:39:57.061                             : 00:39:57.061
00:50:31.070                             : 00:50:31.070
01:04:49.844                             : 01:04:49.844
01:13:58.100                             : 01:13:58.100
01:20:17.396                             : 01:20:17.396
01:27:41.131                             : 01:27:41.131
01:38:41.624                             : 01:38:41.624
01:51:17.421                             : 01:51:17.421
x264 [info]: frame I:5147  Avg QP:17.95  size: 21162
x264 [info]: frame P:164374 Avg QP:20.28  size:  6327
x264 [info]: mb I  I16..4: 25.6%  0.0% 74.4%
x264 [info]: mb P  I16..4:  1.4%  0.0%  3.8%  P16..4: 44.6% 19.2%  7.8%  0.0%  0.0%    skip:23.2%
x264 [info]: coded y,uvDC,uvAC intra: 64.3% 67.9% 38.7% inter: 25.1% 19.5% 4.0%
x264 [info]: i16 v,h,dc,p: 46% 16% 10% 29%
x264 [info]: i4 v,h,dc,ddl,ddr,vr,hd,vl,hu: 35% 13% 14%  6%  7%  8%  6%  7%  5%
x264 [info]: i8c dc,h,v,p: 52% 16% 26%  7%
x264 [info]: ref P L0: 74.4% 25.6%
x264 [info]: kb/s:1299.99

Релиз подготовлен для просмотра на Apple TV, iPad, iPhone, iPod Touch.
Для просмотра данного релиза на компьютере с ОС Windows рекомендуется использовать VLC media player

Трекер:  [ 11-Июн-2018 16:36 ]

  

Скачать .torrent

Размер .torrent файла 26 KB


Размер: 1.28 GB
Хэш (hash) релиза: 9f0509c785ded6f687e253d88dc8c07a0c6d02ad

Еще никто не оставлял запись к записи скачать торрент Tomb Raider: Лара Крофт Tomb Raider . Будь первым!

!Обратная связь