brennprogramm | cd brennen | videobearbeitung

Скачать через торрент Жирным шрифтом The Bold Type Фильм бесплатно в хорошем качестве torrent

Скачивайте на UnionPeer.org фильмы через торрент без регистрации. Новинки кино в хорошем качестве через торрент. На UnionPeer.org можно скачать через торрент фильмы 2014 и 2015 годов. Самые новые фильмы.

Скачать торрент Жирным шрифтом The Bold Type бесплатно через .torrent фильм мультфильм сериал

Статистика раздачи
Размер:  777 MB   |    Зарегистрирован:  12 дней   |    .torrent скачан:  31 раз   |   
Раздают:  1  
   
загрузка...
 
Автор Сообщение

Galfimbul

avatar Galfimbul


Жирным шрифтом / The Bold Type


Год выпуска: 2018
Страна: США
Жанр: драма
Продолжительность: ~ 00:45:00
Перевод: Профессиональный (многоголосый закадровый) | Jaskier
Режиссёр: Гэри Фледер
В ролях:Марчелло Ди Фруща, Мелисса Плант, Дэн Джиннотт, Адам Каприоло, Аиша Ди, Мэган Фэйхи, Сэмюэл Пейдж, Кэти Стивенс, Мэтт Уорд
Описание: Сюжет сериала расскажет о первых шагах в индустрии главного редактора журнала Cosmopolitan и исполнительного директора по контенту Hearst Magazine Джоанны Коулз. В центре внимания проекта оказываются три девушки, представляющие один современный модный журнал. Героини живут в Нью-Йорке и наслаждаются своим оглушительным успехом на работе. Однако в личной жизни пока что все не так хорошо и радужно, как могло бы показаться. Главные героини стремятся за всеми новинками моды, забывая о естественности и природной красоте. Нередко на их пути попадаются состоятельные мужчины, которых волнует лишь их светский образ. Однако главные героини начинают понимать, что в жизни самое главное не карьера. Да и дружба не должна уходить на второе место! Посмотрим, получится ли им покорить мужчин своей мечты.

Качество: WEBRip 720p
Формат: MKV
Видео: 1280x720 (16:9) | X264 | ~2213 kbps | 23.976 fps
Аудио 1: AC3, 48,0 КГц, 6 ch, 192 kbps - [RUS]
Аудио 2: AC3, 48,0 КГц, 6 ch, 192 kbps - [ENG]
Реклама: Присутствует звуковая (два раза в начале и конце по 10 сек.)
Ссылка на предыдущие и альтернативные раздачи
Переведено и озвучено: студией Jaskier
Общее
Уникальный идентификатор                 : 284192432276160892508031512872107787417 (0xD5CD78B61E0999A101588D78EBC64499)
Полное имя                               : F:\Jaskier\The.Bold.Type Season 2 (WEBRip l 720p l Jaskier)\The.Bold.Type.S02E01.WEBRip.720p.Jaskier.mkv
Формат                                   : Matroska
Версия формата                           : Version 4 / Version 2
Размер файла                             : 777 Мбайт
Продолжительность                        : 41 м. 49 с.
Общий поток                              : 2599 Кбит/сек
Дата кодирования                         : UTC 2018-06-11 12:39:17
Программа кодирования                    : mkvmerge v19.0.0 ('Brave Captain') 64-bit
Библиотека кодирования                   : libebml v1.3.5 + libmatroska v1.4.8

Видео
Идентификатор                            : 1
Формат                                   : AVC
Формат/Информация                        : Advanced Video Codec
Профиль формата                          : [email protected]
Настройки формата                        : CABAC / 5 Ref Frames
Параметр CABAC формата                   : Да
Параметр RefFrames формата               : 5 кадров
Идентификатор кодека                     : V_MPEG4/ISO/AVC
Продолжительность                        : 41 м. 49 с.
Битрейт                                  : 2213 Кбит/сек
Ширина                                   : 1280 пикселей
Высота                                   : 720 пикселей
Соотношение сторон                       : 16:9
Режим частоты кадров                     : Постоянный
Частота кадров                           : 23,976 (24000/1001) кадра/сек
Цветовое пространство                    : YUV
Субдискретизация насыщенности            : 4:2:0
Битовая глубина                          : 8 бит
Тип развёртки                            : Прогрессивная
Бит/(Пиксели*Кадры)                      : 0.100
Размер потока                            : 662 Мбайт (85%)
Default                                  : Да
Forced                                   : Нет

Аудио #1
Идентификатор                            : 2
Формат                                   : AC-3
Формат/Информация                        : Audio Coding 3
Идентификатор кодека                     : A_AC3
Продолжительность                        : 41 м. 49 с.
Вид битрейта                             : Постоянный
Битрейт                                  : 192 Кбит/сек
Каналы                                   : 2 канала
Расположение каналов                     : Front: L R
Частота                                  : 48,0 КГц
Частота кадров                           : 31,250 кадров/сек (1536 SPF)
Битовая глубина                          : 16 бит
Метод сжатия                             : С потерями
Размер потока                            : 57,4 Мбайт (7%)
Заголовок                                : Jaskier
Язык                                     : Russian
ServiceKind/String                       : Complete Main
Default                                  : Да
Forced                                   : Нет

Аудио #2
Идентификатор                            : 3
Формат                                   : AC-3
Формат/Информация                        : Audio Coding 3
Идентификатор кодека                     : A_AC3
Продолжительность                        : 41 м. 49 с.
Вид битрейта                             : Постоянный
Битрейт                                  : 192 Кбит/сек
Каналы                                   : 2 канала
Расположение каналов                     : Front: L R
Частота                                  : 48,0 КГц
Частота кадров                           : 31,250 кадров/сек (1536 SPF)
Битовая глубина                          : 16 бит
Метод сжатия                             : С потерями
Размер потока                            : 57,4 Мбайт (7%)
Язык                                     : English
ServiceKind/String                       : Complete Main
Default                                  : Нет
Forced                                   : Нет
Когда раздача ведётся путём добавления новых серий, при каждом добавлении создётся новый торрент. Чтобы начать докачку новой серии, пользователям необходимо сделать следующее:
(1) остановить скачивание,
(2) удалить старый торрент у себя из клиента (старые серии удалять не надо),
(3) скачать новый торрент и запустить его у себя в клиенте вместо старого, при этом указать клиенту путь в старую папку, куда и должно происходить скачивание новых серий.
Ваш клиент при этом должен произвести хеширование (проверку) старой папки (если не производит сам - помогите ему сделать это), и будет докачивать только те серии, которых у вас ещё нет. Старые серии при этом не удаляются, а продолжают раздаваться!
Eсли вы уже удалили старые серии, то предотвратить повторную закачку старых серий можно, отжав галочку в соответсвующих местах при запуске нового торрента. По возможности, желательно не удалять старые серии как можно дольше, чтобы релизёр не столько продолжал раздавать старые серии, а смог сконцентрироваться на новых.



Трекер:  [ 11-Июн-2018 16:18 ]

  

Скачать .torrent

Размер .torrent файла 15 KB


Размер: 777 MB
Хэш (hash) релиза: 88cce56fa5857560c305b709aec4c2c0a88632c4
Подписка на обновления:

Еще никто не оставлял запись к записи скачать торрент Жирным шрифтом The Bold Type . Будь первым!

!Обратная связь