Sam Cotton | Rail Wars! | Aitana Sánchez-Gijón

Скачать через торрент Плащ и Кинжал Cloak and Dagger Фильм бесплатно в хорошем качестве torrent

Скачивайте на UnionPeer.org фильмы через торрент без регистрации. Новинки кино в хорошем качестве через торрент. На UnionPeer.org можно скачать через торрент фильмы 2014 и 2015 годов. Самые новые фильмы.

Скачать торрент Плащ и Кинжал Cloak and Dagger бесплатно через .torrent фильм мультфильм сериал

Статистика раздачи
Размер:  687 MB   |    Зарегистрирован:  11 дней   |    .torrent скачан:  36 раз   |   
Раздают:  1  
   
загрузка...
 
Автор Сообщение

Galfimbul

avatar Galfimbul


Плащ и Кинжал / Cloak and Dagger

Год выпуска: 2018
Страна: США
Жанр: Драма, фантастика, приключения
Продолжительность: ~ 47 мин.
Перевод: Профессиональный (многоголосый закадровый) NewStudio
Режиссёр: Джина Принс-Байтвуд, Алекс Гарсиа Лопес, Питер Хор и др.
В ролях: Дерик Августин, Ноэль Рени Берси, Маркус Клэй, Митч Крафт, Майкл Винсент Донован, Дж.Д. Эвермор, Брайан Майкл Холл, Шон Брэдли Хофер, Оливия Холт, Обри Джозеф и др.

Описание: Два подростка обнаруживают у себя новые суперспособности — Тэнди может излучать световые кинжалы, а Тайрон способен облачать людей во тьму. Они быстро понимают, что вместе им лучше, чем порознь, но их чувства друг к другу делают сложный мир еще более запутанным.
Кинопоиск / IMDb

Качество: WEB-DLRip
Контейнер: AVI
Видео: 720x400 (1.80:1), 23.976 fps, XviD build 50 ~1550 kbps avg, 0.22 bit/pixel
Аудио 1: 48 kHz, MPEG Layer 3, 2 ch, ~192.00 kbps avg (Rus)
Аудио 2: 48 kHz, MPEG Layer 3, 2 ch, ~192.00 kbps avg (Eng)
Субтитры: нет
Реклама: отсутствует
01. First Light
Общее
Полное имя : D:\Видео\Релизы\Cloak & Dagger\Cloak.&.Dagger.s01e01.avi
Формат : AVI
Формат/Информация : Audio Video Interleave
Размер файла : 687 Мбайт
Продолжительность : 49 м. 15 с.
Общий поток : 1949 Кбит/сек
Программа кодирования : VirtualDubMod 1.5.10.2 (build 2540/release)
Библиотека кодирования : VirtualDubMod build 2540/release

Видео
Идентификатор : 0
Формат : MPEG-4 Visual
Профиль формата : Advanced [email protected]
Настройки формата : BVOP1
Параметр BVOP формата : 1
Параметр QPel формата : Нет
Параметр GMC формата : Без точки перехода
Параметр матрицы формата : Default (H.263)
Идентификатор кодека : XVID
Идентификатор кодека/Подсказка : XviD
Продолжительность : 49 м. 15 с.
Битрейт : 1551 Кбит/сек
Ширина : 720 пикселей
Высота : 400 пикселей
Соотношение сторон : 16:9
Частота кадров : 23,976 (24000/1001) кадра/сек
Цветовое пространство : YUV
Субдискретизация насыщенности : 4:2:0
Битовая глубина : 8 бит
Тип развёртки : Прогрессивная
Метод сжатия : С потерями
Бит/(Пиксели*Кадры) : 0.225
Размер потока : 547 Мбайт (80%)
Библиотека кодирования : XviD 1.2.1 (UTC 2008-12-04)

Аудио #1
Идентификатор : 1
Формат : MPEG Audio
Версия формата : Version 1
Профиль формата : Layer 3
Настройки формата : Joint stereo / MS Stereo
Идентификатор кодека : 55
Идентификатор кодека/Подсказка : MP3
Продолжительность : 49 м. 15 с.
Вид битрейта : Постоянный
Битрейт : 192 Кбит/сек
Каналы : 2 канала
Частота : 48,0 КГц
Метод сжатия : С потерями
Размер потока : 67,6 Мбайт (10%)
Выравнивание : Соединение по промежуткам
Продолжительность промежутка : 42 мс. (1,00 видеокадр)
Время предзагрузки промежутка : 504 мс.

Аудио #2
Идентификатор : 2
Формат : MPEG Audio
Версия формата : Version 1
Профиль формата : Layer 3
Настройки формата : Joint stereo / MS Stereo
Идентификатор кодека : 55
Идентификатор кодека/Подсказка : MP3
Продолжительность : 49 м. 15 с.
Вид битрейта : Постоянный
Битрейт : 192 Кбит/сек
Каналы : 2 канала
Частота : 48,0 КГц
Частота кадров : 41,667 кадра/сек (1152 SPF)
Метод сжатия : С потерями
Размер потока : 67,6 Мбайт (10%)
Выравнивание : Соединение по промежуткам
Продолжительность промежутка : 42 мс. (1,00 видеокадр)
Время предзагрузки промежутка : 504 мс.
Библиотека кодирования : LAME3.99.5


Трекер:  [ 11-Июн-2018 14:48 ]

  

Скачать .torrent

Размер .torrent файла 14 KB


Размер: 687 MB
Хэш (hash) релиза: 8a4241fc8d5d3fa41ca1f301783350f26d3edbd8
Подписка на обновления:

Торренты, похожие на Плащ и Кинжал Cloak and Dagger скачать торрент

Форум Название Автор Размер S L Добавлен
Зарубежные сериалы ·· Плащ и Кинжал / Cloak and Dagger / Сезон: 1 / Серии: 1 из 10 (Джина Принс-Байтвуд) [2018, США, Драма, фантастика, приключения, WEB-DLRip] MVO (NewStudio) + Original Galfimbul 105610788789.84 GB 0 0 1528807696

15:48

12-Июн-18

Зарубежные сериалы ·%· Плащ и Кинжал / Cloak and Dagger / Сезон: 1 / Серии: 1-2 из 10 (Джина Принс-Байтвуд) [2018, США, Драма, фантастика, приключения, WEB-DLRip] DVO (Gears Media) + Original Galfimbul 993404768947 MB 0 0 1528881489

12:18

13-Июн-18

Зарубежные сериалы ·· Плащ и Кинжал / Cloak and Dagger / Сезон: 1 / Серии: 1-2 из 10 (Джина Принс-Байтвуд) [2018, США, Драма, фантастика, приключения, WEB-DL 720p] DVO (Gears Media) + Original Galfimbul 23411606502.18 GB 0 0 1528879703

11:48

13-Июн-18

Зарубежные сериалы ·· Плащ и Кинжал / Cloak and Dagger / Сезон: 1 / Серии: 1-2 из 10 (Джина Принс-Байтвуд) [2018, США, Драма, боевик, фантастика, приключения, WEB-DLRip] MVO (Jaskier) + Original Galfimbul 11461898241.07 GB 0 0 1528634886

15:48

10-Июн-18

Зарубежные сериалы ·· Плащ и Кинжал / Cloak and Dagger / Сезон: 1 / Серии: 1-2 из 10 (Джина Принс-Байтвуд) [2018, США, Драма, боевик, фантастика, приключения, WEB-DL 720p] MVO (Jaskier) + Original Galfimbul 21653831842.02 GB 0 0 1528633131

15:18

10-Июн-18

Еще никто не оставлял запись к записи скачать торрент Плащ и Кинжал Cloak and Dagger . Будь первым!

!Обратная связь