Marvel’s The Defenders | Pretty Cure | Download

Скачать через торрент Маланья Фильм бесплатно в хорошем качестве torrent

Скачивайте на UnionPeer.org фильмы через торрент без регистрации. Новинки кино в хорошем качестве через торрент. На UnionPeer.org можно скачать через торрент фильмы 2014 и 2015 годов. Самые новые фильмы.

Скачать торрент Маланья бесплатно через .torrent фильм мультфильм сериал

Статистика раздачи
Размер:  126 MB   |    Зарегистрирован:  13 дней   |    .torrent скачан:  25 раз   |   
Раздают:  1  
   
загрузка...
 
Автор Сообщение

Galfimbul

avatar Galfimbul


Маланья

Страна: Россия
Жанр: мультфильм, экранизация
Продолжительность: 00:16:24
Год выпуска: 2014

Режиссёр: Игорь Писаренко

Песни исполняет: Дарья Кузнецова

Описание: По сказу Николая Лескова.
Про сердобольную бедную женщину Маланью, приютившую двух сироток.

Качество: WEBRip
Формат: AVI
Видео: 935 kbps, 640х448 (1.429), 25.000 fps, MPEG-4 Visual (XviD)
Аудио: 128 kbps, 44.1 kHz, 2 channels, MPEG Audio (MP3)
Субтитры: отсутствуют
GeneralComplete name : Маланья (2014).aviFormat : AVIFormat/Info : Audio Video InterleaveFile size : 126 MiBDuration : 16mn 24sOverall bit rate : 1 073 KbpsWriting application : VirtualDubMod 1.5.10.2 (build 2540/release)Writing library : VirtualDubMod build 2540/release

VideoID : 0Format : MPEG-4 VisualFormat profile : Advanced [email protected] settings, BVOP : 2Format settings, QPel : NoFormat settings, GMC : No warppointsFormat settings, Matrix : Default (H.263)Codec ID : XVIDCodec ID/Hint : XviDDuration : 16mn 24sBit rate : 935 KbpsWidth : 640 pixelsHeight : 448 pixelsDisplay aspect ratio : 1.429Frame rate : 25.000 fpsColor space : YUVChroma subsampling : 4:2:0Bit depth : 8 bitsScan type : ProgressiveCompression mode : LossyBits/(Pixel*Frame) : 0.130Stream size : 110 MiB (87%)Writing library : XviD 73

AudioID : 1Format : MPEG AudioFormat version : Version 1Format profile : Layer 3Codec ID : 55Codec ID/Hint : MP3Duration : 16mn 24sBit rate mode : ConstantBit rate : 128 KbpsChannel(s) : 2 channelsSampling rate : 44.1 KHzCompression mode : LossyStream size : 15.0 MiB (12%)Alignment : Split accross interleavesInterleave, duration : 40 ms (1.00 video frame)Interleave, preload duration : 500 ms


Трекер:  [ 11-Июн-2018 07:01 ]

  

Скачать .torrent

Размер .torrent файла 20 KB


Размер: 126 MB
Хэш (hash) релиза: 295c034e5738eeaf228d7c9cee36db04ef04cd69
Подписка на обновления:

Еще никто не оставлял запись к записи скачать торрент Маланья . Будь первым!

!Обратная связь