Weightlifting Fairy Kim Bok-joo 15.Bölüm 24791 | 3x03 Overlord | The Walking Dead

Скачать через торрент Что? Где? Когда? Летняя серия. Третья Игра Фильм бесплатно в хорошем качестве torrent

Скачивайте на UnionPeer.org фильмы через торрент без регистрации. Новинки кино в хорошем качестве через торрент. На UnionPeer.org можно скачать через торрент фильмы 2014 и 2015 годов. Самые новые фильмы.

Скачать торрент Что? Где? Когда? Летняя серия. Третья Игра бесплатно через .torrent фильм мультфильм сериал

Статистика раздачи
Размер:  3.63 GB   |    Зарегистрирован:  2 месяца 7 дней   |    .torrent скачан:  56 раз   |   
Раздают:  1  
   
загрузка...
 
Автор Сообщение

Galfimbul

avatar Galfimbul


Что? Где? Когда? Летняя серия. Третья Игра

Дата/Год выпуска: 10.06.2018
Страна: Россия
Жанр: Телеигра
Продолжительность: 00:54:48
Перевод: Не требуется
Описание: Третья Игра Летней Серии 2018г Элитарного клуба ЧГК

Доп. информация: команда Игоря Алексеева

1. Анна Янгель
2. Сергей Ковалевский
3. Виталий Орехов
4. Александр Булычев
5. Георгий Полин
6. Игорь Алексеев

качество: HDTV 1080i
формат: TS/M2TS
Видео: AVC at 8442 Кбит/сек Aspect : 1920 x 1080 (1.778) at 25.000 fps
Аудио: AC-3 at 384 Кбит/сек Infos : 6 каналов, 48,0 КГц
Аудио 2: MPEG Audio at 192 Кбит/сек Infos : 2 канала, 48,0 КГц
ОбщееИдентификатор : 1 (0x1)Полное имя : E:\MPEG\ЧГК.10.06.2018.HDTV.1080i.Doc66.tsФормат : MPEG-TSРазмер файла : 3,63 ГбайтПродолжительность : 54 м.Режим общего битрейта : ПеременныйОбщий поток : 9493 Кбит/сек

ВидеоИдентификатор : 205 (0xCD)Идентификатор меню : 20105 (0x4E89)Формат : AVCФормат/Информация : Advanced Video CodecПрофиль формата : [email protected]Параметр CABAC формата : ДаПараметр ReFrames формата : 4 кадраИдентификатор кодека : 27Продолжительность : 54 м.Битрейт : 8442 Кбит/секШирина : 1920 пикселейВысота : 1080 пикселейСоотношение сторон : 16:9Частота кадров : 25,000 кадров/секСтандарт вещания : ComponentЦветовое пространство : YUVСубдискретизация насыщенности : 4:2:0Битовая глубина : 8 битТип развёртки : ЧересстрочнаяПорядок развёртки : Верхнее поле первоеБит/(Пиксели*Кадры) : 0.163Размер потока : 3,23 Гбайт (89%)Цветовой диапазон : LimitedОсновные цвета : BT.709Характеристики трансфера : BT.709Коэффициенты матрицы : BT.709

Аудио #1Идентификатор : 305 (0x131)Идентификатор меню : 20105 (0x4E89)Формат : AC-3Формат/Информация : Audio Coding 3Расширение режима : CM (complete main)Параметр Endianness формата : BigИдентификатор кодека : 6Продолжительность : 54 м.Вид битрейта : ПостоянныйБитрейт : 384 Кбит/секКаналы : 6 каналовРасположение каналов : Front: L C R, Side: L R, LFEЧастота : 48,0 КГцМетод сжатия : С потерямиЗадержка видео : -80 мс.Размер потока : 151 Мбайт (4%)Язык : Russian

Аудио #2Идентификатор : 306 (0x132)Идентификатор меню : 20105 (0x4E89)Формат : MPEG AudioВерсия формата : Version 1Профиль формата : Layer 2Идентификатор кодека : 3Продолжительность : 54 м.Вид битрейта : ПостоянныйБитрейт : 192 Кбит/секКаналы : 2 каналаЧастота : 48,0 КГцМетод сжатия : С потерямиЗадержка видео : -80 мс.Размер потока : 75,3 Мбайт (2%)Язык : Russian

Текст #1Идентификатор : 307 (0x133)-100Идентификатор меню : 20105 (0x4E89)Формат : TeletextЯзык : Russian

Текст #2Идентификатор : 307 (0x133)-888Идентификатор меню : 20105 (0x4E89)Формат : Teletext SubtitleЯзык : RussianЯзык, дополнительно : For hearing impaired people

МенюИдентификатор : 105 (0x69)Идентификатор меню : 20105 (0x4E89)Продолжительность : 54 м.Список : 205 (0xCD) (AVC) / 305 (0x131) (AC-3, Russian) / 306 (0x132) (MPEG Audio, Russian) / 307 (0x133) ()Язык : / Russian / Russian


Трекер:  [ 11-Июн-2018 00:42 ]

  

Скачать .torrent

Размер .torrent файла 18 KB


Размер: 3.63 GB
Хэш (hash) релиза: a1e65c7f8ce27043767e632963ddd265e89a14d9
Подписка на обновления:

Торренты, похожие на Что? Где? Когда? Летняя серия. Третья Игра скачать торрент

Форум Название Автор Размер S L Добавлен
Развлекательные телепередачи и шоу ·· Что? Где? Когда? - Летняя серия игр 2015. Игра третья [14.06.2015, Интеллектуальное шоу, WEBRip] Galfimbul 879812680839 MB 0 0 1434662750

00:25

19-Июн-15

Развлекательные телепередачи и шоу ·· Что? Где? Когда? 2015. Летняя серия. Третья игра. [14.06.2015, Интеллектуальное шоу, TVRip] Galfimbul 411513430392 MB 0 0 1438971064

21:11

7-Авг-15

Еще никто не оставлял запись к записи скачать торрент Что? Где? Когда? Летняя серия. Третья Игра . Будь первым!

!Обратная связь