IMDb: 7.3 HD The Stolen Princess | The Bold Type: Season 2 | Tad et le secret du roi Midas

Скачать через торрент Может, я встречу тебя в подземелье? Меч Оратории Dungeon ni Deai o Motomeru no wa Machigatte Iru Darouka Gaiden: Sword Oratoria бесплатно Аниме Все серии на русском torrent

Статистика раздачи
Размер:  5.45 GB   |    Зарегистрирован:  2 месяца 4 дня   |    .torrent скачан:  67 раз   |   
Раздают:  1  
   
загрузка...
 
Автор Сообщение

Galfimbul

avatar Galfimbul


Может, я встречу тебя в подземелье? Меч Оратории / Dungeon ni Deai o Motomeru no wa Machigatte Iru Darouka Gaiden: Sword Oratoria / Danmachi

Страна: Япония
Год выпуска: 2017
Жанр: приключения, фэнтези
Тип: TV
Продолжительность: 12 эп, ~24 мин. серия
Режиссер: Судзуки Ёхэй
Студия: J.C. Staff

Описание: Подземелье. Здесь на каждом шагу может подстерегать пугающая опасность, на любом из множества этажей поджидают разнообразные монстры и чудища. Подземелье – это не для слабохарактерных людей. Но наша героиня Айзу Валленштайн не из таких. Она авантюристка первого класса, бесстрашно бросающая вызов этому жутковатому месту. Коллеги Айзу прозвали её «Принцессой меча», и, поверьте, это не просто так. Девушка обладает невероятным мастерством и, мало того, постоянно совершенствуется. Правда, иногда наплевав на интересы остальных.

Но несмотря на свою обособленность, Айзу является частью команды авантюристов Клан Локи, которые стремятся дойти до 59 этажа Подземелья. По дороге ребята выполняют различные задания, заказчиками которых может быть кто угодно. Квесты обычно не заставляют себя ждать, и на 51 этаже авантюристам предстоит победить грозного дракона, одного из сильнейших монстров, встречавшихся им до этих пор. Команда профессионалов решает, что это задание дастся им крайне легко. Но что же ждёт их на этом нелёгком пути?

Качество: BDRip (gt35)
Тип релиза: Без хардсаба
Формат видео: MKV
Видео: AVC (10 bit), 1280x720, 2919 kbps, 23.976 fps
Аудио: AAC, 256 kbps, 48.0 kHz, 2 ch Язык Японский
Субтитры: ASS, внешние, полные, «YakuSub Studio» (01-11) Язык субтитров русский ; Перевод: Lulu | Редактура: Aero | Оформление: Nika_Elrik
Субтитры 2: ASS, внешние, полные, «SovetRomantica» (12) Язык субтитров русский ; Перевод: КВОРYМ | Редактура: Sk3wer
От
...5423326
-720p
...5388392
-BDRip
GeneralUnique ID : 287861055226793303446888395156868145507 (0xD89005C9AA53D0482466D3A299E5A163)Complete name : E:\Фильмы\Аниме\Danmachi\Danmachi Gaiden - Sword Oratoria [BD] [720p]\[gt35] Danmachi Gaiden - Sword Oratoria [01] [BDRip, 720p, AAC].mkvFormat : MatroskaFormat version : Version 4 / Version 2File size : 539 MiBDuration : 23 min 42 sOverall bit rate : 3 177 kb/sEncoded date : UTC 2018-06-07 19:23:43Writing application : mkvmerge v23.0.0 ('The Bride Said No') 64-bitWriting library : libebml v1.3.6 + libmatroska v1.4.9

VideoID : 1Format : AVCFormat/Info : Advanced Video CodecFormat profile : High [email protected] settings, CABAC : YesFormat settings, ReFrames : 6 framesCodec ID : V_MPEG4/ISO/AVCDuration : 23 min 42 sBit rate : 2 919 kb/sWidth : 1 280 pixelsHeight : 720 pixelsDisplay aspect ratio : 16:9Frame rate mode : ConstantFrame rate : 23.976 (24000/1001) FPSColor space : YUVChroma subsampling : 4:2:0Bit depth : 10 bitsScan type : ProgressiveBits/(Pixel*Frame) : 0.132Stream size : 495 MiB (92%)Writing library : x264 core 155 r2901M 7d0ff22 (DJATOM's mod)Encoding settings : cabac=1 / ref=6 / deblock=1:1:-1 / analyse=0x3:0x113 / me=umh / subme=9 / psy=1 / fade_compensate=0.00 / psy_rd=1.00:0.00 / mixed_ref=1 / me_range=32 / chroma_me=1 / trellis=2 / 8x8dct=1 / cqm=0 / deadzone=21,11 / fast_pskip=1 / chroma_qp_offset=-2 / threads=6 / lookahead_threads=1 / sliced_threads=0 / nr=0 / decimate=1 / interlaced=0 / bluray_compat=0 / constrained_intra=0 / bframes=9 / b_pyramid=2 / b_adapt=2 / b_bias=0 / direct=1 / weightb=1 / open_gop=0 / weightp=2 / keyint=240 / keyint_min=23 / scenecut=40 / intra_refresh=0 / rc=crf / mbtree=0 / crf=15.0000 / qcomp=0.72 / qpmin=0 / qpmax=81 / qpstep=4 / ip_ratio=1.40 / pb_ratio=1.30 / aq=1:0.85Language : JapaneseDefault : YesForced : NoColor range : LimitedColor primaries : BT.709Transfer characteristics : BT.709Matrix coefficients : BT.709

AudioID : 2Format : AACFormat/Info : Advanced Audio CodecFormat profile : LCCodec ID : A_AACDuration : 23 min 42 sBit rate : 256 kb/sChannel(s) : 2 channelsChannel positions : Front: L RSampling rate : 48.0 kHzFrame rate : 46.875 FPS (1024 spf)Compression mode : LossyDelay relative to video : 9 msStream size : 43.4 MiB (8%)Language : JapaneseDefault : YesForced : No
01. Принцесса Меча и Эльф
02. Примерка и покупка
03. Фестиваль и отвага
04. Убийство и драгоценность
05. Красноволосая и одинокий правитель
06. Подчинение и побег
07. Просьбы и разделение
08. Порочность и Дева
09. Тренировки и зависть
10. Юноша и герой
11. Путешествие к неизведанному
12. Меч Оратории


Трекер:  [ 11-Июн-2018 00:30 ]

  

Скачать .torrent

Размер .torrent файла 16 KB


Размер: 5.45 GB
Хэш (hash) релиза: a38d83f3873bc049d311654e0a7b9f2fe0edb00f
Подписка на обновления:

Торренты, похожие на Может, я встречу тебя в подземелье? Меч Оратории Dungeon ni Deai o Motomeru no wa Machigatte Iru Darouka Gaiden: Sword Oratoria скачать торрент

Форум Название Автор Размер S L Добавлен
Аниме | HD Rips ·· Может, я встречу тебя в подземелье? Меч Оратории /Dungeon ni Deai o Motomeru no wa Machigatte Iru Darouka Gaiden: Sword Oratoria /Danmachi Gaiden: Sword Oratoria [TV] [01 из 12] [Без хардсаба] [JAP+SUB] [2017, приключения, фэнтези, BDRip] [1080p] Galfimbul 14794284171.38 GB 0 0 1498917717

17:01

1-Июл-17

Аниме | HD Rips ·· Может, я встречу тебя в подземелье? Меч Оратории /Dungeon ni Deai o Motomeru no wa Machigatte Iru Darouka Gaiden: Sword Oratoria /Danmachi Gaiden: Sword Oratoria [TV] [01-09 из 12] [Без хардсаба] [JAP+SUB] [2017, приключения, фэнтези, HDTVRip] [720p] Galfimbul 41488749243.86 GB 0 0 1497092513

14:01

10-Июн-17

Аниме | Rips ·· Может, я встречу тебя в подземелье? Меч Оратории / Dungeon ni Deai o Motomeru no wa Machigatte Iru Darouka Gaiden: Sword Oratoria / Danmachi Gaiden: Sword Oratoria [TV] [01 из 12] [Без хардсаба] [RUS(ext), JAP, SUB] [2017, Приключения, Фэнтези, Экшен Galfimbul 639068712609 MB 0 0 1492944185

13:43

23-Апр-17

Аниме | HD Rips ·· Может, я встречу тебя в подземелье? Меч Оратории /Dungeon ni Deai o Motomeru no wa Machigatte Iru Darouka Gaiden: Sword Oratoria /Danmachi Gaiden: Sword Oratoria [TV] [01-02 из 12] [Без хардсаба] [JAP+SUB] [2017, приключения, фэнтези, HDTVRip] [720p] Galfimbul 983592072938 MB 0 0 1492857738

13:42

22-Апр-17

Аниме | HD Rips ·%· Может, я встречу тебя в подземелье? Меч Оратории / Dungeon ni Deai o Motomeru no wa Machigatte Iru Darouka Gaiden: Sword Oratoria / Danmachi [TV] [12 из 12] [без хардсаба] [RUS(ext), JAP+SUB] [2017, приключения, фэнтези, BDRemux] [1080p] Galfimbul 9135647871085.08 GB 0 0 1530556219

21:30

2-Июл-18

Аниме | Rips ·· Может, я встречу тебя в подземелье? Меч Оратории / Dungeon ni Deai o Motomeru no wa Machigatte Iru Darouka Gaiden: Sword Oratoria / Danmachi [TV] [1-8 из 12] [Без хардсаба] [RUS(ext), JAP, SUB] [2017, Приключения, Фэнтези, Экшен, HDTVRip] [720p] Galfimbul 46044138934.29 GB 0 0 1496964817

02:33

9-Июн-17

Аниме | Rips ·· Может, я встречу тебя в подземелье? Меч Оратории / Dungeon ni Deai o Motomeru no wa Machigatte Iru Darouka Gaiden: Sword Oratoria / Danmachi [TV] [1-2 из 12] [Без хардсаба] [RUS(ext), JAP, SUB] [2017, Приключения, Фэнтези, Экшен, HDTVRip] [720p] Galfimbul 11227277901.05 GB 0 0 1492954867

16:41

23-Апр-17

Еще никто не оставлял запись к записи скачать торрент Может, я встречу тебя в подземелье? Меч Оратории Dungeon ni Deai o Motomeru no wa Machigatte Iru Darouka Gaiden: Sword Oratoria . Будь первым!

!Обратная связь