Lewis T. Powell | Paul Dave | Watatatow saison 2 épisode 39

Скачать через торрент [ATV3] Tomb Raider: Лара Крофт Tomb Raider бесплатно русская версия torrent активатор

Статистика раздачи
Размер:  7.75 GB   |    Зарегистрирован:  14 дней   |    .torrent скачан:  57 раз   |   
Раздают:  1  
   
загрузка...
 
Автор Сообщение

Galfimbul

avatar Galfimbul


Tomb Raider: Лара Крофт / Tomb Raider
«Her legend begins»

6.295 / 10 6.50 / 10
Год выпуска: 2018
Страна: США
Жанр: Фэнтези, боевик, приключения
Продолжительность: 01:57:50

Перевод: Дублированный (Лицензия)
Оригинальная аудиодорожка: Есть
Cубтитры: Русские форсированные, Русские, Английские
Режиссёр: Роар Утхауг
Сценарий: Женева Робертсон-Дуорет, Алистер Сиддонс, Ивэн Догерти
Продюсер: Грэм Кинг, Женевьева Хофмайер, Ной Хьюз
Оператор: Джордж Ричмонд
Композитор: Джанки Экс-Эл
Художник: Гари Фриман, Том Браун, Клер Флеминг
Монтаж: Стюарт Бейрд, Том Харрисон-Рид, Майкл Троник
В ролях: Алисия Викандер, Доминик Уэст, Уолтон Гоггинс, Дэниэл Ву, Кристин Скотт Томас, Дерек Джекоби, Александр Виллауме, Тамер Барджаг, Эдриан Коллинз, Кинэн Эррисон

Бюджет: $94 000 000
Сборы в России: $7 407 699

Мировая премьера: 2 марта 2018
Премьера (РФ): 15 марта 2018, «Каро-Премьер»

Цифровой релиз: 18 июня 2018, «Warner Bros.»

Описание: Лара Крофт — весьма самостоятельная дочь эксцентричного искателя приключений, который пропал, едва она стала подростком. Теперь ей двадцать один, она бесцельно проживает свою жизнь, курьером рассекая на байке по забитым улицам восточного Лондона. Решительно настроенная пробиться сама, она отказывается брать на себя руководство глобальной империей отца, столь же категорично отвергая мысль о том, что он действительно пропал. Слыша советы о том, что ей нужно смириться с этим фактом и жить дальше после семи лет бесплодных поисков, Лара уже и сама не понимает, что же заставляет ее распутывать обстоятельства его таинственного исчезновения.
Качество исходника: BDRemux (BlueBird)
Качество: BDRip
Тип: HD (1080p)
Контейнер: M4V
Видео: H.264, 1920x800, 2.40:1, 8 000 Kbps, 23.976 (24000/1001) fps

Аудио 1: Русский/Дублированный (Лицензия), AAC / 2.0 / 160 Kbps / 48.0 KHz
Аудио 2: Английский/Оригинальная дорожка , AAC / 2.0 / 160 Kbps / 48.0 KHz
Аудио 3: Русский/Дублированный (Лицензия), AC-3 / 5.1 / 448 Kbps / 48.0 KHz
Аудио 4: Английский/Оригинальная дорожка , AC-3 / 5.1 / 640 Kbps / 48.0 KHz

Субтитры 1: Русские форсированные
Субтитры 2: Русские полные
Субтитры 3: Английские полные
Sort Name: Tomb Raider
XID: Apple:vendor_id:2018-446136
contentID: 1348879664
Copyright: © 2018 Warner Bros. Entertainment Inc. and Metro-Goldwyn-Mayer Pictures Inc. All Rights Reserved.
Screenwriters: Женева Робертсон-Дуорет, Алистер Сиддонс, Ивэн Догерти
Producers: Грэм Кинг, Женевьева Хофмайер, Ной Хьюз
Director: Роар Утхауг
Cast: Алисия Викандер, Доминик Уэст, Уолтон Гоггинс, Дэниэл Ву, Кристин Скотт Томас, Дерек Джекоби, Александр Виллауме, Тамер Барджаг, Эдриан Коллинз, Кинэн Эррисон
Studio: MGM
Rating: 4
Long Description: Лара Крофт — весьма самостоятельная дочь эксцентричного искателя приключений, который пропал, едва она стала подростком. Теперь ей двадцать один, она бесцельно проживает свою жизнь, курьером рассекая на байке по забитым улицам восточного Лондона. Решительно настроенная пробиться сама, она отказывается брать на себя руководство глобальной империей отца, столь же категорично отвергая мысль о том, что он действительно пропал. Слыша советы о том, что ей нужно смириться с этим фактом и жить дальше после семи лет бесплодных поисков, Лара уже и сама не понимает, что же заставляет ее распутывать обстоятельства его таинственного исчезновения.
Description: Лара Крофт — весьма самостоятельная дочь эксцентричного искателя приключений, который пропал, едва она стала подростком. Теперь ей двадцать один, она бесцельно проживает свою жизнь, курьером рассекая на байке по забитым улицам восточного Лондона.
Release Date: 2018-03-16T07:00:00Z
Genre: Action & Adventure
Artist: Roar Uthaug
Name: Tomb Raider (2018)
General
Complete name                            : /Users/imac/HandBrake/Tomb Raider (2018) (1080p HD).m4v
Format                                   : MPEG-4
Codec ID                                 : M4V  (M4V /M4A /mp42/isom)
File size                                : 7.75 GiB
Duration                                 : 1h 57mn
Overall bit rate mode                    : Variable
Overall bit rate                         : 9 411 Kbps
Movie name                               : Tomb Raider (2018)
Performer                                : Roar Uthaug
Director                                 : Роар Утхауг
Actor                                    : Алисия Викандер / Доминик Уэст / Уолтон Гоггинс / Дэниэл Ву / Кристин Скотт Томас / Дерек Джекоби / Александр Виллауме / Тамер Барджаг / Эдриан Коллинз / Кинэн Эррисон
Screenplay by                            : Женева Робертсон-Дуорет / Алистер Сиддонс / Ивэн Догерти
Producer                                 : Грэм Кинг / Женевьева Хофмайер / Ной Хьюз
Production studio                        : MGM
Genre                                    : Action & Adventure
ContentType                              : Short Film
Description                              : Лара Крофт — весьма самостоятельная дочь эксцентричного искателя приключений, который пропал, едва она стала подростком. Теперь ей двадцать один, она бесцельно проживает свою жизнь, курьером рассекая на байке по забитым улицам восточного Лондона.
Recorded date                            : UTC 2018-03-16 07:00:00
Encoded date                             : UTC 2018-06-10 18:40:39
Tagged date                              : UTC 2018-06-10 18:47:59
Copyright                                : © 2018 Warner Bros. Entertainment Inc. and Metro-Goldwyn-Mayer Pictures Inc. All Rights Reserved.
Cover                                    : Yes
Rating                                   : None
Title/Sort                               : Tomb Raider
LongDescription                          : Лара Крофт — весьма самостоятельная дочь эксцентричного искателя приключений, который пропал, едва она стала подростком. Теперь ей двадцать один, она бесцельно проживает свою жизнь, курьером рассекая на байке по забитым улицам восточного Лондона. Решительно настроенная пробиться сама, она отказывается брать на себя руководство глобальной империей отца, столь же категорично отвергая мысль о том, что он действительно пропал. Слыша советы о том, что ей нужно смириться с этим фактом и жить дальше после семи лет бесплодных поисков, Лара уже и сама не понимает, что же заставляет ее распутывать обстоятельства его таинственного исчезновения.
AppleStoreCatalogID                      : 1348879664
Vendor                                   : Apple:vendor_id:2018-446136
ContentRating                            : mpaa|PG-13|300|

Video #1
ID                                       : 1
Format                                   : AVC
Format/Info                              : Advanced Video Codec
Format profile                           : [email protected]
Format settings                          : CABAC / 4 Ref Frames
Format settings, CABAC                   : Yes
Format settings, ReFrames                : 4 frames
Codec ID                                 : avc1
Codec ID/Info                            : Advanced Video Coding
Duration                                 : 1h 57mn
Source duration                          : 1h 57mn
Bit rate                                 : 8 000 Kbps
Width                                    : 1 920 pixels
Height                                   : 800 pixels
Display aspect ratio                     : 2.40:1
Frame rate mode                          : Variable
Frame rate                               : 23.976 (24000/1001) fps
Minimum frame rate                       : 23.974 fps
Maximum frame rate                       : 23.981 fps
Color space                              : YUV
Chroma subsampling                       : 4:2:0
Bit depth                                : 8 bits
Scan type                                : Progressive
Bits/(Pixel*Frame)                       : 0.217
Stream size                              : 6.58 GiB (85%)
Source stream size                       : 6.58 GiB (85%)
Title                                    : Main Program
Writing library                          : x264 core 155 r2893 b00bcaf
Encoding settings                        : cabac=1 / ref=4 / deblock=1:-2:-2 / analyse=0x3:0x133 / me=umh / subme=10 / psy=1 / psy_rd=1.00:0.15 / mixed_ref=1 / me_range=32 / chroma_me=1 / trellis=2 / 8x8dct=1 / cqm=0 / deadzone=21,11 / fast_pskip=1 / chroma_qp_offset=-3 / threads=25 / lookahead_threads=6 / sliced_threads=0 / nr=0 / decimate=0 / interlaced=0 / bluray_compat=0 / constrained_intra=0 / bframes=16 / b_pyramid=2 / b_adapt=2 / b_bias=0 / direct=3 / weightb=1 / open_gop=0 / weightp=2 / keyint=240 / keyint_min=24 / scenecut=40 / intra_refresh=0 / rc_lookahead=40 / rc=2pass / mbtree=1 / bitrate=8000 / ratetol=1.0 / qcomp=0.70 / qpmin=0 / qpmax=69 / qpstep=4 / cplxblur=20.0 / qblur=0.5 / ip_ratio=1.40 / aq=1:1.00
Language                                 : English
Encoded date                             : UTC 2018-06-10 18:40:40
Tagged date                              : UTC 2018-06-10 18:40:58
Color range                              : Limited
Color primaries                          : BT.709
Transfer characteristics                 : BT.709
Matrix coefficients                      : BT.709
Menus                                    : 9,10

Video #2
ID                                       : 10
Format                                   : JPEG
Codec ID                                 : jpeg
Duration                                 : 1h 57mn
Bit rate mode                            : Variable
Bit rate                                 : 620 bps
Width                                    : 640 pixels
Height                                   : 266 pixels
Display aspect ratio                     : 2.40:1
Frame rate mode                          : Variable
Frame rate                               : 0.002 fps
Minimum frame rate                       : 0.001 fps
Maximum frame rate                       : 0.003 fps
Color space                              : YUV
Chroma subsampling                       : 4:2:0
Bit depth                                : 8 bits
Compression mode                         : Lossy
Bits/(Pixel*Frame)                       : 1.821
Stream size                              : 454 KiB (0%)
Title                                    : Chapter Images
Language                                 : English
Default                                  : No
Encoded date                             : UTC 2018-06-10 18:41:10
Tagged date                              : UTC 2018-06-10 18:41:10
Menu For                                 : 1
ColorSpace_ICC                           : RGB

Audio #1
ID                                       : 2
Format                                   : AAC
Format/Info                              : Advanced Audio Codec
Format profile                           : LC
Codec ID                                 : mp4a-40-2
Duration                                 : 1h 57mn
Source duration                          : 1h 57mn
Bit rate mode                            : Variable
Bit rate                                 : 159 Kbps
Maximum bit rate                         : 227 Kbps
Channel(s)                               : 2 channels
Channel positions                        : Front: L R
Sampling rate                            : 48.0 KHz
Frame rate                               : 46.875 fps (1024 SPF)
Compression mode                         : Lossy
Stream size                              : 134 MiB (2%)
Source stream size                       : 134 MiB (2%)
Title                                    : Russian Stereo
Language                                 : Russian
Default                                  : Yes
Alternate group                          : 1
Encoded date                             : UTC 2018-06-10 18:40:39
Tagged date                              : UTC 2018-06-10 18:41:03
Fallback From                            : 4
Subtitles                                : 6,7
Menus                                    : 9

Audio #2
ID                                       : 3
Format                                   : AAC
Format/Info                              : Advanced Audio Codec
Format profile                           : LC
Codec ID                                 : mp4a-40-2
Duration                                 : 1h 57mn
Source duration                          : 1h 57mn
Bit rate mode                            : Variable
Bit rate                                 : 159 Kbps
Maximum bit rate                         : 232 Kbps
Channel(s)                               : 2 channels
Channel positions                        : Front: L R
Sampling rate                            : 48.0 KHz
Frame rate                               : 46.875 fps (1024 SPF)
Compression mode                         : Lossy
Stream size                              : 134 MiB (2%)
Source stream size                       : 134 MiB (2%)
Title                                    : English Stereo
Language                                 : English
Default                                  : No
Alternate group                          : 1
Encoded date                             : UTC 2018-06-10 18:40:40
Tagged date                              : UTC 2018-06-10 18:41:03
Fallback From                            : 5

Audio #3
ID                                       : 4
Format                                   : AC-3
Format/Info                              : Audio Coding 3
Codec ID                                 : ac-3
Duration                                 : 1h 57mn
Bit rate mode                            : Constant
Bit rate                                 : 448 Kbps
Channel(s)                               : 6 channels
Channel positions                        : Front: L C R, Side: L R, LFE
Sampling rate                            : 48.0 KHz
Frame rate                               : 31.250 fps (1536 SPF)
Bit depth                                : 16 bits
Compression mode                         : Lossy
Stream size                              : 378 MiB (5%)
Title                                    : Russian DD 5.1
Language                                 : Russian
Service kind                             : Complete Main
Default                                  : Inherited From: 2
Alternate group                          : 1
Encoded date                             : UTC 2018-06-10 18:40:40
Tagged date                              : UTC 2018-06-10 18:40:56
Fallback To                              : 2
Subtitles                                : 6,7

Audio #4
ID                                       : 5
Format                                   : AC-3
Format/Info                              : Audio Coding 3
Codec ID                                 : ac-3
Duration                                 : 1h 57mn
Bit rate mode                            : Constant
Bit rate                                 : 640 Kbps
Channel(s)                               : 6 channels
Channel positions                        : Front: L C R, Side: L R, LFE
Sampling rate                            : 48.0 KHz
Frame rate                               : 31.250 fps (1536 SPF)
Bit depth                                : 16 bits
Compression mode                         : Lossy
Stream size                              : 539 MiB (7%)
Title                                    : English DD 5.1
Language                                 : English
Service kind                             : Complete Main
Default                                  : No
Alternate group                          : 1
Encoded date                             : UTC 2018-06-10 18:40:40
Tagged date                              : UTC 2018-06-10 18:40:56
Fallback To                              : 3

Text #1
ID                                       : 6
Format                                   : Timed Text
Muxing mode                              : sbtl
Codec ID                                 : tx3g
Duration                                 : 1h 57mn
Bit rate mode                            : Variable
Bit rate                                 : 2 bps
Stream size                              : 1.48 KiB (0%)
Title                                    : Russian forced
Language                                 : Russian
Default                                  : Yes
Forced                                   : Yes
Alternate group                          : 2
Encoded date                             : UTC 2018-06-10 18:40:40
Tagged date                              : UTC 2018-06-10 18:40:40
Subtitles For                            : 2,4
Full Alternative                         : 7

Text #2
ID                                       : 7
Format                                   : Timed Text
Muxing mode                              : sbtl
Codec ID                                 : tx3g
Duration                                 : 1h 57mn
Bit rate mode                            : Variable
Bit rate                                 : 44 bps
Stream size                              : 37.6 KiB (0%)
Title                                    : Russian full
Language                                 : Russian
Default                                  : No
Forced                                   : No
Alternate group                          : 2
Encoded date                             : UTC 2018-06-10 18:40:40
Tagged date                              : UTC 2018-06-10 18:40:40
Subtitles For                            : 2,4
Forced Alternative                       : 6

Text #3
ID                                       : 8
Format                                   : Timed Text
Muxing mode                              : sbtl
Codec ID                                 : tx3g
Duration                                 : 1h 51mn
Bit rate mode                            : Variable
Bit rate                                 : 33 bps
Stream size                              : 27.2 KiB (0%)
Title                                    : English full
Language                                 : English
Default                                  : No
Forced                                   : No
Alternate group                          : 2
Encoded date                             : UTC 2018-06-10 18:40:40
Tagged date                              : UTC 2018-06-10 18:40:40

Menu #1
00:00:00.000                             : 00:00:00.000
00:13:13.251                             : 00:13:13.251
00:24:04.234                             : 00:24:04.234
00:31:57.999                             : 00:31:57.999
00:39:57.061                             : 00:39:57.061
00:50:31.070                             : 00:50:31.070
01:04:49.844                             : 01:04:49.844
01:13:58.100                             : 01:13:58.100
01:20:17.396                             : 01:20:17.396
01:27:41.131                             : 01:27:41.131
01:38:41.624                             : 01:38:41.624
01:51:17.421                             : 01:51:17.421

Menu #2
ID                                       : 9
Codec ID                                 : text
Duration                                 : 1h 57mn
Language                                 : English
Encoded date                             : UTC 2018-06-10 18:41:03
Tagged date                              : UTC 2018-06-10 18:41:03
Bit rate mode                            : CBR
Menu For                                 : 2,1
00:00:00.000                             : 00:00:00.000
00:13:13.251                             : 00:13:13.251
00:24:04.234                             : 00:24:04.234
00:31:57.999                             : 00:31:57.999
00:39:57.061                             : 00:39:57.061
00:50:31.070                             : 00:50:31.070
01:04:49.844                             : 01:04:49.844
01:13:58.100                             : 01:13:58.100
01:20:17.396                             : 01:20:17.396
01:27:41.131                             : 01:27:41.131
01:38:41.624                             : 01:38:41.624
01:51:17.421                             : 01:51:17.421
x264 [info]: frame I:1218  Avg QP:15.22  size:197415
x264 [info]: frame P:45962 Avg QP:18.26  size: 71560
x264 [info]: frame B:122341 Avg QP:19.03  size: 28915
x264 [info]: consecutive B-frames:  5.8%  6.6% 13.4% 18.7% 16.1% 33.9%  3.5%  0.4%  0.5%  0.4%  0.2%  0.1%  0.1%  0.1%  0.0%  0.0%  0.2%
x264 [info]: mb I  I16..4: 33.0% 44.0% 23.0%
x264 [info]: mb P  I16..4: 11.9% 21.7%  2.8%  P16..4: 34.2% 14.2%  8.1%  0.5%  0.2%    skip: 6.5%
x264 [info]: mb B  I16..4:  4.0%  2.6%  0.5%  B16..8: 36.9%  9.5%  2.0%  direct:10.6%  skip:33.9%  L0:43.3% L1:40.3% BI:16.4%
x264 [info]: 8x8 transform intra:51.3% inter:50.3%
x264 [info]: direct mvs  spatial:98.6% temporal:1.4%
x264 [info]: coded y,uvDC,uvAC intra: 86.9% 72.6% 42.7% inter: 31.4% 25.7% 7.6%
x264 [info]: i16 v,h,dc,p: 16%  9% 51% 25%
x264 [info]: i8 v,h,dc,ddl,ddr,vr,hd,vl,hu: 11% 10% 15%  8% 11% 11% 11% 11% 13%
x264 [info]: i4 v,h,dc,ddl,ddr,vr,hd,vl,hu: 10% 10% 17%  7% 11% 11% 11%  9% 12%
x264 [info]: i8c dc,h,v,p: 48% 24% 19%  9%
x264 [info]: Weighted P-Frames: Y:3.6% UV:2.3%
x264 [info]: ref P L0: 54.8% 12.6% 22.7%  9.1%  0.8%  0.0%
x264 [info]: ref B L0: 85.9% 11.8%  2.3%
x264 [info]: ref B L1: 95.6%  4.4%
x264 [info]: kb/s:7996.15

Релиз подготовлен для просмотра на Apple TV, iPad, iPhone, iPod Touch.
Для просмотра данного релиза на компьютере с ОС Windows рекомендуется использовать VLC media player

Трекер:  [ 10-Июн-2018 22:36 ]

  

Скачать .torrent

Размер .torrent файла 78 KB


Размер: 7.75 GB
Хэш (hash) релиза: 46d7fe3817c6765213ed304fcc80fd3bba178ed5

Еще никто не оставлял запись к записи скачать торрент [ATV3] Tomb Raider: Лара Крофт Tomb Raider . Будь первым!

!Обратная связь