Mais ›› | The Square FRENCH WEBRIP 2018 | Wentworth

Скачать через торрент Агрессивная Рэцуко アグレッシブ烈子 Фильм бесплатно в хорошем качестве torrent

Скачивайте на UnionPeer.org фильмы через торрент без регистрации. Новинки кино в хорошем качестве через торрент. На UnionPeer.org можно скачать через торрент фильмы 2014 и 2015 годов. Самые новые фильмы.

Скачать торрент Агрессивная Рэцуко アグレッシブ烈子 бесплатно через .torrent фильм мультфильм сериал

Статистика раздачи
Размер:  6.63 GB   |    Зарегистрирован:  2 месяца 6 дней   |    .torrent скачан:  43 раза   |   
Раздают:  1  
   
загрузка...
 
Автор Сообщение

Galfimbul

avatar Galfimbul


Агрессивная Рэцуко / アグレッシブ烈子 / Aggretsuko (Netflix)

Страна: Япония
Жанр: комедия, аниме
Продолжительность серии: 00:15:38 - 9 первых серий, 00:18:26 - последняя серия
Год выпуска: 2018
Перевод: Одноголосый закадровый (AsetKeyZet)
Русские субтитры: нет

Режиссёр и сценарист: Рарэко / Rarecho
Роли озвучивали: Kaolip, Rarecho, Komegumi Koiwasaki, Maki Tsuruta, Shingo Kato, Rina Inoue

Описание: Знаменитый японский короткометражный сериал спустя два года заимел сезон из 10 полноценных серий на популярном сервисе Netflix.
Все в офисе пытаются сесть на шею маленькой и скромной красной панде по имени Рэцуко. Сбросить стресс ей помогает пение под металл в тайне ото всех. Хорошо прооравшись, Рэцуко находит в себе силы на время смириться с давлением начальства, лицемерием коллег и офисной рутиной.

Список серий:
01. Один день из жизни Рэцуко (A Day in the Life of Retsuko)
02. Примерная девочка (A Good, Hard-working Girl)
03. Краткосрочница (Short-timer)
04. Дорога к алтарю (Walking Down the Aisle)
05. Разоблачена (Exposed)
06. Подготовленный мятеж (Stoking Rebellion)
07. Дуэль (The Duel)
08. Принц Из-своего-кармана (The Out of Pocket Prince)
09. Розовый мир (A Rosy World)
10. Вот и сказочке конец (The Dream Ends)

Скачать семпл

Качество: WEB-DL
Формат: MKV
Видео: 1920x1080, 24 fps, 5110 kbps
Аудио: Русский, AC3, 48.0 kHz, Стерео, 192 kbps
Аудио 2: Японский, AC3, 48.0 kHz, 6ch, 384 kbps
Аудио 3: Английский, AC3, 48.0 kHz, 6ch, 384 kbps
Субтитры: Английский, французский
GeneralUnique ID : 185720077676839424533752231180355525520 (0x8BB862C9807BEA888D4A77CEA9445B90)Complete name : C:\Users\Асет\Desktop\AsetKeyZet\Агрессивная Рэцуко\01. Один день из жизни Рэцуко.mkvFormat : MatroskaFormat version : Version 4 / Version 2File size : 666 MiBDuration : 15 min 38 sOverall bit rate mode : VariableOverall bit rate : 5 952 kb/sEncoded date : UTC 2018-06-07 18:29:37Writing application : mkvmerge v9.8.0 ('Kuglblids') 64bitWriting library : libebml v1.3.4 + libmatroska v1.4.5

VideoID : 1Format : AVCFormat/Info : Advanced Video CodecFormat profile : [email protected] settings : CABAC / 3 Ref FramesFormat settings, CABAC : YesFormat settings, RefFrames : 3 framesCodec ID : V_MPEG4/ISO/AVCDuration : 15 min 38 sBit rate mode : VariableBit rate : 5 110 kb/sMaximum bit rate : 7 665 kb/sWidth : 1 920 pixelsHeight : 1 080 pixelsDisplay aspect ratio : 16:9Frame rate mode : ConstantFrame rate : 24.000 FPSColor space : YUVChroma subsampling : 4:2:0Bit depth : 8 bitsScan type : ProgressiveBits/(Pixel*Frame) : 0.103Stream size : 558 MiB (84%)Writing library : x264 core 148 r2714 2daf636Encoding settings : cabac=1 / ref=3 / deblock=1:0:0 / analyse=0x1:0x111 / me=umh / subme=10 / psy=1 / psy_rd=1.00:0.00 / mixed_ref=1 / me_range=24 / chroma_me=1 / trellis=2 / 8x8dct=0 / cqm=0 / deadzone=21,11 / fast_pskip=1 / chroma_qp_offset=-2 / threads=8 / lookahead_threads=1 / sliced_threads=0 / nr=0 / decimate=1 / interlaced=0 / bluray_compat=0 / stitchable=1 / constrained_intra=0 / bframes=2 / b_pyramid=0 / b_adapt=2 / b_bias=0 / direct=3 / weightb=1 / open_gop=0 / weightp=2 / keyint=48 / keyint_min=25 / scenecut=0 / intra_refresh=0 / rc_lookahead=48 / rc=2pass / mbtree=1 / bitrate=5110 / ratetol=1.0 / qcomp=0.50 / qpmin=6 / qpmax=51 / qpstep=4 / cplxblur=20.0 / qblur=0.5 / vbv_maxrate=7665 / vbv_bufsize=10220 / nal_hrd=vbr / filler=0 / ip_ratio=1.40 / aq=1:1.00Default : YesForced : No

Audio #1ID : 2Format : AC-3Format/Info : Audio Coding 3Format settings, Endianness : BigCodec ID : A_AC3Duration : 15 min 38 sBit rate mode : ConstantBit rate : 192 kb/sChannel(s) : 2 channelsChannel positions : Front: L RSampling rate : 48.0 kHzFrame rate : 31.250 FPS (1536 SPF)Bit depth : 16 bitsCompression mode : LossyStream size : 21.5 MiB (3%)Title : AsetKeyZetLanguage : RussianService kind : Complete MainDefault : YesForced : Yes

Audio #2ID : 3Format : AC-3Format/Info : Audio Coding 3Format settings, Endianness : BigCodec ID : A_AC3Duration : 15 min 38 sBit rate mode : ConstantBit rate : 384 kb/sChannel(s) : 6 channelsChannel positions : Front: L C R, Side: L R, LFESampling rate : 48.0 kHzFrame rate : 31.250 FPS (1536 SPF)Bit depth : 16 bitsCompression mode : LossyStream size : 43.0 MiB (6%)Title : ОригиналLanguage : JapaneseService kind : Complete MainDefault : NoForced : No

Audio #3ID : 4Format : AC-3Format/Info : Audio Coding 3Format settings, Endianness : BigCodec ID : A_AC3Duration : 15 min 38 sBit rate mode : ConstantBit rate : 384 kb/sChannel(s) : 6 channelsChannel positions : Front: L C R, Side: L R, LFESampling rate : 48.0 kHzFrame rate : 31.250 FPS (1536 SPF)Bit depth : 16 bitsCompression mode : LossyStream size : 43.0 MiB (6%)Title : VSI Los AngelesLanguage : EnglishService kind : Complete MainDefault : NoForced : No

Text #1ID : 5Format : UTF-8Codec ID : S_TEXT/UTF8Codec ID/Info : UTF-8 Plain TextDuration : 14 min 31 sBit rate : 57 b/sCount of elements : 211Stream size : 6.14 KiB (0%)Language : EnglishDefault : NoForced : No

Text #2ID : 6Format : UTF-8Codec ID : S_TEXT/UTF8Codec ID/Info : UTF-8 Plain TextDuration : 14 min 45 sBit rate : 63 b/sCount of elements : 212Stream size : 6.84 KiB (0%)Language : FrenchDefault : NoForced : No
Предыдущие и альтернативные раздачи

Трекер:  [ 10-Июн-2018 22:24 ]

  

Скачать .torrent

Размер .torrent файла 17 KB


Размер: 6.63 GB
Хэш (hash) релиза: 58c8d7dfb34db72314ae07742acc4afba01dd3b4
Подписка на обновления:

Еще никто не оставлял запись к записи скачать торрент Агрессивная Рэцуко アグレッシブ烈子 . Будь первым!

!Обратная связь