HD The Mercy 2018 6.1 Adventure Biography Drama | HD Journey's End 2018 7.1 Drama War | Thriller

Скачать через торрент Кэйти Мораг Katie Morag Фильм бесплатно в хорошем качестве torrent

Скачивайте на UnionPeer.org фильмы через торрент без регистрации. Новинки кино в хорошем качестве через торрент. На UnionPeer.org можно скачать через торрент фильмы 2014 и 2015 годов. Самые новые фильмы.

Скачать торрент Кэйти Мораг Katie Morag бесплатно через .torrent фильм мультфильм сериал

Статистика раздачи
Размер:  1.06 GB   |    Зарегистрирован:  12 дней   |    .torrent скачан:  27 раз   |   
Раздают:  1  
   
загрузка...
 
Автор Сообщение

Galfimbul

avatar Galfimbul


Кэйти Мораг / Katie Morag

Год выпуска: 2013
Страна: Великобритания
Жанр: детский, семейный
Продолжительность: 00:15:00

Перевод: Любительский (двухголосый закадровый) Студия Райдо

Режиссёр: Дон Котс

В ролях: Черри Кэмпбэлл, Гейл Уотсон, Энни Луза Росс, Кеннет Харви, Ангус Питер Кэмпбэлл, Барбара Рафферти и др.

Описание: На вымышленном шотландском острове Струэй живёт рыжеволосая девочка. Живёт с родителями. Иногда к ней приезжает Бабуля-с-острова или Бабуля-с-материка. Временами девочка попадает в такие ситуации, что только руками развести, но взрослые охотно помогают ей познавать этот большой окружающий мир.

Доп. информация: Славный сериал нам подкинули. Он детский. Нет, даже семейный, потому что взрослые тоже с удовольствием посмотрят.
Называется он “Katie Morag” и снят английским детским каналом Cbeebies по книгам Мэри Хэддервик.
В марте 2013 года был объявлен кастинг на роль главной героини. Он проходил в Глазго и Эдинбурге.
В итоге победу одержала семилетняя Черри Кэмпбелл из Глазго, ей и досталась главная роль.
Всего было снято 26 эпизодов по 15 минут. Мы с Полиной сделали первые 10 и находимся в поисках остальных серий.
Релиз - Студии Райдо, перевод на русский язык Елены Антоновой и Марины Павличенко. Закадровый текст читали Полина Касаткина и Сергей Калугин.
Озвучено по заказу группы Британское кино и сериалы (БКиС)

Сэмпл: http://multi-up.com/1201212

Качество: WEB-DLRip
Формат: AVI
Видео: XVID, 1096 Кбит/с, 640x360
Аудио: MP3, 2 ch, 128 Кбит/с, 48 KHz, русский
Субтитры: Отсутствут

Реклама:
Отсутствует
01. Кэйти Мораг доставляет почту
02. Кэйти Мораг и две бабули
03. Кэйти Мораг и старая учительница
04. Вечеринка Бабули-с-острова. Большой вонючий козёл
05. Кэйти Мораг и новый мальчик
06. Кэйти Мораг и пират
07. Кэйти Мораг и Иззи
08. Вечеринка Бабули-с-острова. Каменный суп
09. Кэйти Мораг и особая посылка
10. Кэйти Мораг и надоевший мишка
General
Complete name : F:\Katie Morag\Katie Morag S01E05 Katie Morag and the New Boy.avi
Format : AVI
Format/Info : Audio Video Interleave
File size : 116 MiB
Duration : 14 min 19 s
Overall bit rate : 1 131 kb/s
Movie name : 5. Katie Morag and the New Boy
Part/Position : 5
Director : CBeebies
Genre : Children's
Recorded date : UTC 2013-11-17 17:25:00
Writing application : Lavf56.25.101
Original source form/Name : Katie Morag
Copyright : В© 2013 British Broadcasting Corporation, all rights reserved
Comment : The new teacher arrives at Struay Primary School, bringing with him his son John.

Video
ID : 0
Format : xvid
Codec ID : xvid
Duration : 14 min 18 s
Bit rate : 991 kb/s
Width : 640 pixels
Height : 360 pixels
Display aspect ratio : 16:9
Frame rate : 25.000 FPS
Scan type : Progressive
Bits/(Pixel*Frame) : 0.172
Stream size : 101 MiB (88%)

Audio
ID : 1
Format : MPEG Audio
Format version : Version 1
Format profile : Layer 3
Format settings : Joint stereo / MS Stereo
Codec ID : 55
Codec ID/Hint : MP3
Duration : 14 min 19 s
Bit rate mode : Constant
Bit rate : 128 kb/s
Channel(s) : 2 channels
Sampling rate : 48.0 kHz
Compression mode : Lossy
Stream size : 13.1 MiB (11%)
Alignment : Aligned on interleaves
Interleave, duration : 24 ms (0.60 video frame)
Предыдущие и альтернативные раздачи

Трекер:  [ 10-Июн-2018 20:18 ]

  

Скачать .torrent

Размер .torrent файла 12 KB


Размер: 1.06 GB
Хэш (hash) релиза: aabbd6cd55bda6990ea2f808903a07f3ce1ea746
Подписка на обновления:

Еще никто не оставлял запись к записи скачать торрент Кэйти Мораг Katie Morag . Будь первым!

!Обратная связь