Handrian | Jason Isaacs | Regarder un film

Скачать через торрент [iPad] Zомбоящик бесплатно русская версия torrent активатор

Статистика раздачи
Размер:  990 MB   |    Зарегистрирован:  14 дней   |    .torrent скачан:  22 раза   |   
Раздают:  1  
   
загрузка...
 
Автор Сообщение

Galfimbul

avatar Galfimbul


Zомбоящик
-

2.621 / 10
Год выпуска: 2017
Страна: Россия
Жанр: Комедия
Продолжительность: 00:59:20

Перевод: (Не требуется)
Оригинальная аудиодорожка: Есть
Cубтитры: Нет
Режиссёр: Константин Смирнов
Продюсер: Вячеслав Дусмухаметов, Артур Джанибекян, Андрей Левин
Оператор: Евгений Привин
Художник: Сергей Телин
В ролях: Гарик Харламов, Гарик Мартиросян, Тимур Батрутдинов, Александр Ревва, Павел Воля, Екатерина Варнава, Андрей Скороход, Роман Юнусов, Ольга Бузова, Анна Хилькевич

Бюджет: 200 000 000 руб.
Сборы в России: $2 965 996

Премьера (РФ): 25 января 2018, «Каропрокат»

Цифровой релиз: 7 июня 2018, «Газпром-медиа»

Описание: Во времена Шекспира весь мир был театром, в наши же дни его захватил зомбоящик. 30 звезд ТНТ. Все жанры: драма, комедия, боевик, триллер, научная фантастика, байопик, эротика и экспериментальное кино. От бессмысленного и беспощадного стеба не скроется никто: ни футболисты, ни геи, ни чиновники, ни священники, ни расисты, ни онанисты! Герои «Zомбоящика» интригуют, дразнят, издеваются и смеются вместе со зрителями, доказывая, что вся наша жизнь и есть «Zомбоящик».
Качество исходника: WEB-DL 1080p (BlueBird)
Качество: WEB-DLRip
Тип: SD (576p)
Контейнер: M4V
Видео: H.264, 1024x432, 2.40:1, 2 200 Kbps, 23.814 fps

Аудио: Русский/Оригинальная дорожка , AAC / 2.0 / 128 Kbps / 48.0 KHz
Sort Name: Zомбоящик
XID: Apple:vendor_id:2017-1047867
contentID: 1358369288
Copyright: © 2018 Каропрокат
Producers: Вячеслав Дусмухаметов, Артур Джанибекян, Андрей Левин
Director: Константин Смирнов
Cast: Гарик Харламов, Гарик Мартиросян, Тимур Батрутдинов, Александр Ревва, Павел Воля, Екатерина Варнава, Андрей Скороход, Роман Юнусов, Ольга Бузова, Анна Хилькевич
Studio: Comedy Club Production, THT
Rating: 136
Long Description: Во времена Шекспира весь мир был театром, в наши же дни его захватил зомбоящик. 30 звезд ТНТ. Все жанры: драма, комедия, боевик, триллер, научная фантастика, байопик, эротика и экспериментальное кино. От бессмысленного и беспощадного стеба не скроется никто: ни футболисты, ни геи, ни чиновники, ни священники, ни расисты, ни онанисты! Герои «Zомбоящика» интригуют, дразнят, издеваются и смеются вместе со зрителями, доказывая, что вся наша жизнь и есть «Zомбоящик».
Description: Во времена Шекспира весь мир был театром, в наши же дни его захватил зомбоящик. 30 звезд ТНТ. Все жанры: драма, комедия, боевик, триллер, научная фантастика, байопик, эротика и экспериментальное кино.
Release Date: 2018-01-25T08:00:00Z
Genre: Comedy
Artist: Константин Смирнов
Name: Zомбоящик
General
Complete name : /Users/imac/HandBrake/Zombibox.(SD).(pk).m4v
Format : MPEG-4
Codec ID : M4V
File size : 990 MiB
Duration : 59mn 19s
Overall bit rate mode : Variable
Overall bit rate : 2 334 Kbps
Movie name : Zомбоящик
Performer : Константин Смирнов
Director : Константин Смирнов
Actor : Гарик Харламов / Гарик Мартиросян / Тимур Батрутдинов / Александр Ревва / Павел Воля / Екатерина Варнава / Андрей Скороход / Роман Юнусов / Ольга Бузова / Анна Хилькевич
Producer : Вячеслав Дусмухаметов / Артур Джанибекян / Андрей Левин
Production studio : Comedy Club Production, THT
Genre : Comedy
ContentType : Short Film
Description : Во времена Шекспира весь мир был театром, в наши же дни его захватил зомбоящик. 30 звезд ТНТ. Все жанры: драма, комедия, боевик, триллер, научная фантастика, байопик, эротика и экспериментальное кино.
Recorded date : UTC 2018-01-25 08:00:00
Encoded date : UTC 2018-06-10 16:15:39
Tagged date : UTC 2018-06-10 16:21:22
Copyright : © 2018 Каропрокат
Cover : Yes
Rating : None
Title/Sort : Zомбоящик
LongDescription : Во времена Шекспира весь мир был театром, в наши же дни его захватил зомбоящик. 30 звезд ТНТ. Все жанры: драма, комедия, боевик, триллер, научная фантастика, байопик, эротика и экспериментальное кино. От бессмысленного и беспощадного стеба не скроется никто: ни футболисты, ни геи, ни чиновники, ни священники, ни расисты, ни онанисты! Герои «Zомбоящика» интригуют, дразнят, издеваются и смеются вместе со зрителями, доказывая, что вся наша жизнь и есть «Zомбоящик».
AppleStoreCatalogID : 1358369288
Vendor : Apple:vendor_id:2017-1047867
ContentRating : ru-movie|18+|400|

Video
ID : 1
Format : AVC
Format/Info : Advanced Video Codec
Format profile : [email protected]
Format settings, CABAC : Yes
Format settings, ReFrames : 9 frames
Codec ID : avc1
Codec ID/Info : Advanced Video Coding
Duration : 59mn 19s
Source duration : 59mn 19s
Bit rate : 2 200 Kbps
Width : 1 024 pixels
Height : 432 pixels
Display aspect ratio : 2.40:1
Frame rate mode : Variable
Frame rate : 23.814 fps
Minimum frame rate : 18.112 fps
Maximum frame rate : 23.981 fps
Color space : YUV
Chroma subsampling : 4:2:0
Bit depth : 8 bits
Scan type : Progressive
Bits/(Pixel*Frame) : 0.209
Stream size : 932 MiB (94%)
Source stream size : 932 MiB (94%)
Title : Main Program
Writing library : x264 core 155 r2893 b00bcaf
Encoding settings : cabac=1 / ref=9 / deblock=1:0:0 / analyse=0x3:0x113 / me=umh / subme=9 / psy=1 / psy_rd=1.00:0.00 / mixed_ref=1 / me_range=32 / chroma_me=1 / trellis=1 / 8x8dct=1 / cqm=0 / deadzone=21,11 / fast_pskip=1 / chroma_qp_offset=-2 / threads=13 / lookahead_threads=1 / sliced_threads=0 / nr=0 / decimate=1 / interlaced=0 / bluray_compat=0 / constrained_intra=0 / bframes=6 / b_pyramid=2 / b_adapt=2 / b_bias=0 / direct=1 / weightb=1 / open_gop=0 / weightp=2 / keyint=240 / keyint_min=24 / scenecut=40 / intra_refresh=0 / rc_lookahead=40 / rc=2pass / mbtree=1 / bitrate=2200 / ratetol=1.0 / qcomp=0.60 / qpmin=0 / qpmax=69 / qpstep=4 / cplxblur=20.0 / qblur=0.5 / ip_ratio=1.40 / aq=1:1.00
Language : Russian
Encoded date : UTC 2018-06-10 16:15:39
Tagged date : UTC 2018-06-10 16:15:42
Color range : Limited
Color primaries : BT.709
Transfer characteristics : BT.709
Matrix coefficients : BT.709

Audio
ID : 2
Format : AAC
Format/Info : Advanced Audio Codec
Format profile : LC
Codec ID : 40
Duration : 59mn 19s
Source duration : 59mn 19s
Bit rate mode : Variable
Bit rate : 127 Kbps
Maximum bit rate : 222 Kbps
Channel(s) : 2 channels
Channel positions : Front: L R
Sampling rate : 48.0 KHz
Compression mode : Lossy
Stream size : 54.0 MiB (5%)
Source stream size : 54.0 MiB (5%)
Title : Russian Stereo
Language : Russian
Encoded date : UTC 2018-06-10 16:15:39
Tagged date : UTC 2018-06-10 16:15:43
x264 [info]: frame I:613   Avg QP:12.78  size: 76298
x264 [info]: frame P:22244 Avg QP:15.47  size: 23831
x264 [info]: frame B:61919 Avg QP:18.64  size:  6475
x264 [info]: consecutive B-frames:  2.6%  4.6% 10.1% 52.9% 16.2%  9.8%  3.7%
x264 [info]: mb I  I16..4: 13.3% 57.5% 29.2%
x264 [info]: mb P  I16..4:  1.9%  6.6%  2.4%  P16..4: 31.5% 25.9% 16.8%  0.0%  0.0%    skip:15.1%
x264 [info]: mb B  I16..4:  0.2%  0.8%  0.3%  B16..8: 30.8% 10.1%  3.5%  direct: 5.2%  skip:49.1%  L0:40.6% L1:44.0% BI:15.4%
x264 [info]: 8x8 transform intra:60.5% inter:61.2%
x264 [info]: coded y,uvDC,uvAC intra: 80.1% 83.4% 70.3% inter: 24.2% 22.4% 8.6%
x264 [info]: i16 v,h,dc,p: 50% 17%  7% 25%
x264 [info]: i8 v,h,dc,ddl,ddr,vr,hd,vl,hu: 12%  9%  9%  9% 12% 13% 12% 12% 12%
x264 [info]: i4 v,h,dc,ddl,ddr,vr,hd,vl,hu: 12% 10%  4%  9% 14% 14% 13% 12% 13%
x264 [info]: i8c dc,h,v,p: 47% 21% 18% 14%
x264 [info]: Weighted P-Frames: Y:4.4% UV:2.0%
x264 [info]: ref P L0: 54.0%  9.9% 15.8%  6.0%  4.6%  3.2%  3.0%  1.7%  1.7%  0.1%  0.0%
x264 [info]: ref B L0: 77.5% 10.1%  4.9%  2.8%  1.8%  1.4%  1.0%  0.4%
x264 [info]: ref B L1: 96.3%  3.7%
x264 [info]: kb/s:2197.28

Релиз подготовлен для просмотра на Apple TV, iPad, iPhone, iPod Touch.
Для просмотра данного релиза на компьютере с ОС Windows рекомендуется использовать VLC media player

Трекер:  [ 10-Июн-2018 20:06 ]

  

Скачать .torrent

Размер .torrent файла 39 KB


Размер: 990 MB
Хэш (hash) релиза: 59baf493e2fe2eae68aba44beb2d4290ea4d7921

Еще никто не оставлял запись к записи скачать торрент [iPad] Zомбоящик . Будь первым!

!Обратная связь