Pokemon Quest Niantic, Inc. जल्द आ रहा है | Suzy Cube Noodlecake Studios Inc जल्द आ रहा है | Osmanlı'nın Yükselişi -Test Sunucu ONEMT जल्द आ रहा है

Скачать через торрент Для людей For the People Фильм бесплатно в хорошем качестве torrent

Скачивайте на UnionPeer.org фильмы через торрент без регистрации. Новинки кино в хорошем качестве через торрент. На UnionPeer.org можно скачать через торрент фильмы 2014 и 2015 годов. Самые новые фильмы.

Скачать торрент Для людей For the People бесплатно через .torrent фильм мультфильм сериал

Статистика раздачи
Размер:  652 MB   |    Зарегистрирован:  15 дней   |    .torrent скачан:  27 раз   |   
Раздают:  1  
   
загрузка...
 
Автор Сообщение

Galfimbul

avatar Galfimbul


Для людей | For the People
Год выпуска: 2018
Страна: США
Жанр: драма
Продолжительность: ~ 00:45:00
Перевод: Профессиональный (дублированный) | Кириллица

Режиссёр: Том Верика, Марк Тинкер, Эндрю Бернстайн

В ролях: Бритт Робертсон, Джасмин Савой Браун, Бен Раппапорт, Анна Дивер Смит, Хоуп Дэвис, Бен Шенкман, Реге Пейдж, Весам Киш, Сюзанна Флуд, Вонди Куртис-Холл
Описание: Сериал расскажет о шести талантливых начинающих юристах, работающих по разные стороны закона над самыми громкими делами. Эти молодые ребята подвергнутся испытаниям как в личной, так и в профессиональной жизни, которая станет надолго связана с работой самого престижного суда Америки.


Релиз от



Качество: WEBRip
Формат: AVI
Видео: XVID, 720x400, 25.000 fps, ~2000 kbps avg, 0.278 bit/pixel |локализованное видео|
Аудио Rus: AC3 Dolby Digital, 48.0 KHz, 2 channels, 192 kbps
Субтитры: Rus forced (вшитые)

Реклама отсутствует
General
Complete name : D:\Сериалы\For.The.People.S01.WEBRip.Rus.Casstudio\For.The.People.S01E01.WEBRip.Rus.avi
Format : AVI
Format/Info : Audio Video Interleave
File size : 652 MiB
Duration : 41 min 25 s
Overall bit rate : 2 202 kb/s
Writing application : VirtualDubMod 1.5.10.3 | www.virtualdub-fr.org || (build 2550/release)
Writing library : VirtualDubMod build 2550/release

Video
ID : 0
Format : MPEG-4 Visual
Format profile : Advanced [email protected]
Format settings, BVOP : 1
Format settings, QPel : No
Format settings, GMC : No warppoints
Format settings, Matrix : Default (MPEG)
Codec ID : XVID
Codec ID/Hint : XviD
Duration : 41 min 25 s
Bit rate : 2 000 kb/s
Width : 720 pixels
Height : 400 pixels
Display aspect ratio : 16:9
Frame rate : 25.000 FPS
Color space : YUV
Chroma subsampling : 4:2:0
Bit depth : 8 bits
Scan type : Progressive
Compression mode : Lossy
Bits/(Pixel*Frame) : 0.278
Stream size : 592 MiB (91%)
Writing library : XviD 1.2.1 (UTC 2008-12-04)

Audio
ID : 1
Format : AC-3
Format/Info : Audio Coding 3
Mode extension : CM (complete main)
Format settings, Endianness : Big
Codec ID : 2000
Duration : 41 min 25 s
Bit rate mode : Constant
Bit rate : 192 kb/s
Channel(s) : 2 channels
Channel positions : Front: L R
Sampling rate : 48.0 kHz
Frame rate : 31.250 FPS (1536 spf)
Bit depth : 16 bits
Compression mode : Lossy
Stream size : 56.9 MiB (9%)
Alignment : Split accross interleaves
Interleave, duration : 40 ms (1.00 video frame)
Interleave, preload duratio : 500 ms

Внимание! Раздача ведётся путём добавления новых серий; при каждом добавлении создаётся новый торрент.
Чтобы начать докачку новой серии, пользователям необходимо сделать следующее:
1. Остановить скачивание.
2. Удалить старый торрент у себя из клиента (старые серии удалять не надо).
3. Скачать новый торрент и запустить его у себя в клиенте вместо старого, при этом указать клиенту путь в старую папку куда и должно происходить скачивание новых серий.
Ваш клиент при этом должен произвести хеширование (проверку) старой папки (если не производит сам - помогите ему сделать это), и будет докачивать только те серии которых у вас ещё нет. Старые серии при этом не удаляются, а продолжают раздаваться!
Eсли вы уже удалили старые серии, то предотвратить повторную закачку старых серий можно, отжав галочку в соответствующих местах при запуске нового торрента.
<div class="post-box-default">
<div class="post-box" style="border-color: #fff; background: #2F4F4F;">Все раздачи сериала</div>
</div>

Трекер:  [ 10-Июн-2018 17:48 ]

  

Скачать .torrent

Размер .torrent файла 13 KB


Размер: 652 MB
Хэш (hash) релиза: 310e1d63f1a6b08bf6818d19f2c2a750b9946549
Подписка на обновления:

Торренты, похожие на Для людей For the People скачать торрент

Форум Название Автор Размер S L Добавлен
Зарубежные сериалы ·· Для людей / For The People / Сезон: 1 / Серии: 1-10 из 10 (Том Верика, Эндрю Бернштейн, Стеф Грин) [2018, США, драма, WEBRip 1080p] Dub (Кириллица) (локализованное видео) Galfimbul 1677132784715.62 GB 0 0 1528552091

16:48

9-Июн-18

Зарубежные сериалы ·· Для людей / For the People / Сезон: 1 / Серии: 1-10 из 10 (Дэнни Кэннон) [2018, США, драма, WEB-DLRip] DVO (Gears Media) + Original Galfimbul 51270592284.77 GB 0 0 1524352686

02:18

22-Апр-18

Зарубежные сериалы ·· Для людей / For the People / Сезон: 1 / Серии: 1-10 из 10 (Дэнни Кэннон) [2018, США, драма, WEB-DL 720p] DVO (Gears Media) Galfimbul 1201459205411.19 GB 0 0 1524350891

01:48

22-Апр-18

Зарубежные сериалы ·· Для людей / For the People / Сезон: 1 / Серии: 1-10 из 10 (Том Верика, Марк Тинкер, Эндрю Бернстайн) [2018, США, Драма, WEBRip 720p] MVO (Jaskier) + Original Galfimbul 1178715005210.98 GB 0 0 1522243117

16:18

28-Мар-18

Зарубежные сериалы ·· Для людей / For the People / Сезон: 1 / Серии: 1-10 из 10 (Том Верика, Марк Тинкер, Эндрю Бернстайн) [2018, США, Драма, WEBRip] MVO (Jaskier) + Original Galfimbul 56872202245.3 GB 0 0 1522243093

16:18

28-Мар-18

Еще никто не оставлял запись к записи скачать торрент Для людей For the People . Будь первым!

!Обратная связь