AVPlayerHD v2.91 | Infinite Skills - Cisco 200-101 (ICND2) Exam Training Video | Idol Army

Скачать через торрент Американка American Woman Фильм бесплатно в хорошем качестве torrent

Скачивайте на UnionPeer.org фильмы через торрент без регистрации. Новинки кино в хорошем качестве через торрент. На UnionPeer.org можно скачать через торрент фильмы 2014 и 2015 годов. Самые новые фильмы.

Скачать торрент Американка American Woman бесплатно через .torrent фильм мультфильм сериал

Статистика раздачи
Размер:  300 MB   |    Зарегистрирован:  13 дней   |    .torrent скачан:  22 раза   |   
Раздают:  1  
   
загрузка...
 
Автор Сообщение

Galfimbul

avatar Galfimbul


Американка | American Woman
Год выпуска: 2018
Страна: США
Жанр: комедия
Продолжительность: ~ 00:25:00
Перевод: Профессиональный (многоголосый закадровый) | Jaskier
Режиссёр: Алекс Хардкасл, Алетеа Джонс
В ролях: Дженнифер Бартельс, Макенна Джеймс, Лия МакХью, Алисия Сильверстоун, Мена Сувари, Шайен Джексон, Тобиаш Элинек, Диандра Лайл, Джеймс Таппер, Джонатан Чейз и др.
Описание: События развернутся в 70-х годах прошлого века и расскажут историю Бонни Нолан, сорокалетней домохозяйки с прекрасным домом и двумя очаровательными дочками. Её брак распадается, она остается одна и перед Бонни встает насущный вопрос: как выжить в этом мире с двумя детьми, не имея никаких средств к существованию?

| Ссылка на предыдущие и альтернативные раздачи |
Качество: WEB-DLRip
Формат: AVI
Видео: XviD, ~ 1400 kbps, 704x352 (2,000), 23.976 fps
Аудио 1: MP3, 48,0 КГц, 2 ch, 128 kbps - Rus
Аудио 2: MP3, 48,0 КГц, 2 ch, 128 kbps - Eng
Субтитры: отсутствуют
Реклама: Присутствует звуковая (два раза в начале и конце по 12 сек.)
Переведено и озвучено: студией Jaskier
Общее
Полное имя                               : D:\Яскъер\American Woman. Season 1 (WEB-DLRip l 400p l Jaskier)\American.Woman.S01E01.WEB-DLRip.Rus.Eng.Jaskier.avi
Формат                                   : AVI
Формат/Информация                        : Audio Video Interleave
Размер файла                             : 300 Мбайт
Продолжительность                        : 24 м. 7 с.
Общий поток                              : 1742 Кбит/сек
Программа кодирования                    : VirtualDubMod 1.5.10.3 | www.virtualdub-fr.org || (build 2550/release)
Библиотека кодирования                   : VirtualDubMod build 2550/release

Видео
Идентификатор                            : 0
Формат                                   : MPEG-4 Visual
Профиль формата                          : Advanced [email protected]
Настройки формата                        : BVOP1 / Custom Matrix
Параметр BVOP формата                    : 1
Параметр QPel формата                    : Нет
Параметр GMC формата                     : Без точки перехода
Параметр матрицы формата                 : Выборочная
Идентификатор кодека                     : XVID
Идентификатор кодека/Подсказка           : XviD
Продолжительность                        : 24 м. 7 с.
Битрейт                                  : 1472 Кбит/сек
Ширина                                   : 704 пикселя
Высота                                   : 352 пикселя
Соотношение сторон                       : 2,000
Частота кадров                           : 23,976 (24000/1001) кадра/сек
Цветовое пространство                    : YUV
Субдискретизация насыщенности            : 4:2:0
Битовая глубина                          : 8 бит
Тип развёртки                            : Прогрессивная
Метод сжатия                             : С потерями
Бит/(Пиксели*Кадры)                      : 0.248
Размер потока                            : 254 Мбайт (84%)
Библиотека кодирования                   : XviD 73

Аудио #1
Идентификатор                            : 1
Формат                                   : MPEG Audio
Версия формата                           : Version 1
Профиль формата                          : Layer 3
Настройки формата                        : Joint stereo / MS Stereo
Идентификатор кодека                     : 55
Идентификатор кодека/Подсказка           : MP3
Продолжительность                        : 24 м. 7 с.
Вид битрейта                             : Постоянный
Битрейт                                  : 128 Кбит/сек
Каналы                                   : 2 канала
Частота                                  : 48,0 КГц
Метод сжатия                             : С потерями
Размер потока                            : 22,1 Мбайт (7%)
Выравнивание                             : Соединение по промежуткам
Продолжительность промежутка             : 42  мс. (1,00 видеокадр)
Время предзагрузки промежутка            : 504  мс.

Аудио #2
Идентификатор                            : 2
Формат                                   : MPEG Audio
Версия формата                           : Version 1
Профиль формата                          : Layer 3
Настройки формата                        : Joint stereo / MS Stereo
Идентификатор кодека                     : 55
Идентификатор кодека/Подсказка           : MP3
Продолжительность                        : 24 м. 7 с.
Вид битрейта                             : Постоянный
Битрейт                                  : 128 Кбит/сек
Каналы                                   : 2 канала
Частота                                  : 48,0 КГц
Метод сжатия                             : С потерями
Размер потока                            : 22,1 Мбайт (7%)
Выравнивание                             : Соединение по промежуткам
Продолжительность промежутка             : 42  мс. (1,00 видеокадр)
Время предзагрузки промежутка            : 504  мс.
Когда раздача ведётся путём добавления новых серий, при каждом добавлении создётся новый торрент. Чтобы начать докачку новой серии, пользователям необходимо сделать следующее:
(1) остановить скачивание,
(2) удалить старый торрент у себя из клиента (старые серии удалять не надо),
(3) скачать новый торрент и запустить его у себя в клиенте вместо старого, при этом указать клиенту путь в старую папку, куда и должно происходить скачивание новых серий.
Ваш клиент при этом должен произвести хеширование (проверку) старой папки (если не производит сам - помогите ему сделать это), и будет докачивать только те серии, которых у вас ещё нет. Старые серии при этом не удаляются, а продолжают раздаваться!
Eсли вы уже удалили старые серии, то предотвратить повторную закачку старых серий можно, отжав галочку в соответсвующих местах при запуске нового торрента. По возможности, желательно не удалять старые серии как можно дольше, чтобы релизёр не столько продолжал раздавать старые серии, а смог сконцентрироваться на новых.



Трекер:  [ 10-Июн-2018 17:18 ]

  

Скачать .torrent

Размер .torrent файла 12 KB


Размер: 300 MB
Хэш (hash) релиза: 7b96af4e522a7624fcbf922756294f0047ddcedf
Подписка на обновления:

Еще никто не оставлял запись к записи скачать торрент Американка American Woman . Будь первым!

!Обратная связь