Alexander_Orue_-_Detox-DAB-06-11-2018-TALiON | Supernoobs (2015- ) | HD Star Wars: The Last Jedi

Скачать через торрент Секретный агент МакГайвер MacGyver Фильм бесплатно в хорошем качестве torrent

Скачивайте на UnionPeer.org фильмы через торрент без регистрации. Новинки кино в хорошем качестве через торрент. На UnionPeer.org можно скачать через торрент фильмы 2014 и 2015 годов. Самые новые фильмы.

Скачать торрент Секретный агент МакГайвер MacGyver бесплатно через .torrent фильм мультфильм сериал

Статистика раздачи
Размер:  8.74 GB   |    Зарегистрирован:  13 дней   |    .torrent скачан:  34 раза   |   
Раздают:  1  
   
загрузка...
 
Автор Сообщение

Galfimbul

avatar Galfimbul


Секретный агент МакГайвер / MacGyver
Год выпуска: 1985-1986
Страна: США, Канада
Жанр: боевик, драма, криминал, приключения
Продолжительность: ~ 00:47:00

Перевод: Профессиональный (двухголосый закадровый) ДТВ
Режиссёр: Чарльз Коррелл, Александр Сингер, Майкл Прис, William Gereghty

В ролях: Ричард Дин Андерсон, Дана Элкар, Брюс МакГилл, Майкл Дес Баррес, Робин Моссли, Elyssa Davalos, Сьюзэн Чаппл, Джон Андерсон, Тери Хэтчер, Брюс Харвуд
Описание: МакГайвер талантливый ученый, тонкий психолог, пацифист. Ненавидит огнестрельное оружие. Его оружие — это смекалка и знания (из области физики, химии и психологии). Единственный его верный «напарник» — швейцарский армейский ножик.

МакГайвер использует подручные средства, чтобы выбираться из экстремальных ситуаций: может обезвредить скрепкой ракету «земля-воздух», приготовить взрывчатку из садовых удобрений, сделать скафандр из расплавленного садового шланга, смастерить детектор лжи из будильника и прибора для измерения давления.

Однако (помимо этого неординарного таланта) МакГайвер привлекает своей человечностью и стремлением помочь едва знакомым людям. МакГайвер оказывается втянутым в водоворот опасных событий из благих побуждений. Каждый эпизод — это захватывающая история, изобилующая феерическими сюжетными выдумками. МакГайвер — человек с уникальными способностями, без определенной профессии, который путешествует по миру, бескорыстно помогая людям и попадая в экстремальные ситуации.

И чем сложнее эта экстремальная ситуация, тем интереснее и достойней будет выход из нее. Торжество разума.
1. Почти во всех сериях присутствуют отрывки без перевода (для серий 1,12 изготовлены русские субтитры на непереведённые места)
2. Файлы DVDrip (серии 5,8,10,12,13,15,17,19,20) скачаны с зарубежного трекера
3. Звуковые дорожки с переводом (серии 5,8,10,12,13,15,17,19,20) взяты из моих записей сделанных в 2006-2008 г. с телеканала ДТВ при помощи двд-рекордера PANASONIC DMR-ES10 . Качество звука намного лучше чем в других раздачах .
4. Эпизоды : 1-4,6,7,9,11,14,16,18,21,22 , взяты из раздачи ...3235527

предыдущие и альтернативные раздачи
Качество: DVDRip
Формат: AVI
Видео: Xvid, 512x384 (4:3), 23.976 fps, ~ 910 Kbps, 0.194 bits/pixel
Аудио: MP3, 48 KHz, 2 ch, 192 kbps | ДТВ
Аудио 2: MP3, 48 KHz, 2 ch, 128 kbps | Original
Субтитры: Русские (1,12 серии, не озвученные фрагменты)
Реклама: нет
s01e01 - Pilot
s01e02 - The Golden Triangle
s01e03 - Thief of Budapest
s01e04 - The Gauntlet
s01e05 - The Heist
s01e06 - Trumbo's World
s01e07 - Last Stand
s01e08 - Hellfire
s01e09 - The Prodigal
s01e10 - Target MacGyver
s01e11 - Nightmares
s01e12 - Deathlock
s01e13 - Flame's End
s01e14 - Countdown
s01e15 - The Enemy Within
s01e16 - Every Time She Smiles
s01e17 - To Be a Man
s01e18 - Ugly Duckling
s01e19 - Slow Death
s01e20 - The Escape
s01e21 - A Prisoner of Conscience
s01e22 - The Assassin
Общее
Полное имя : D:\МакГайвер.1985.сезон1.DVDrip.ДТВ.rus-eng\S01E10.Target.MacGyver.DVDRip.recorder.avi
Формат : AVI
Формат/Информация : Audio Video Interleave
Размер файла : 423 Мбайт
Продолжительность : 46 м.
Общий поток : 1273 Кбит/сек
Программа кодирования : VirtualDubMod 1.5.10.3 (build 2550/release)
Библиотека кодирования : VirtualDubMod build 2550/release

Видео
Идентификатор : 0
Формат : MPEG-4 Visual
Профиль формата : Advanced [email protected]
Параметр BVOP формата : 2
Параметр QPel формата : Нет
Параметр GMC формата : Без точки перехода
Параметр матрицы формата : Default (H.263)
Режим смешивания : Сжатый битовый поток
Идентификатор кодека : XVID
Идентификатор кодека/Подсказка : XviD
Продолжительность : 46 м.
Битрейт : 939 Кбит/сек
Ширина : 512 пикселей
Высота : 384 пикселя
Соотношение сторон : 4:3
Частота кадров : 23,976 кадра/сек
Цветовое пространство : YUV
Субдискретизация насыщенности : 4:2:0
Битовая глубина : 8 бит
Тип развёртки : Прогрессивная
Метод сжатия : С потерями
Бит/(Пиксели*Кадры) : 0.199
Размер потока : 312 Мбайт (74%)
Библиотека кодирования : XviD 1.0.2 (UTC 2004-08-29)

Аудио #1
Идентификатор : 1
Формат : MPEG Audio
Версия формата : Version 1
Профиль формата : Layer 3
Идентификатор кодека : 55
Идентификатор кодека/Подсказка : MP3
Продолжительность : 46 м.
Вид битрейта : Постоянный
Битрейт : 192 Кбит/сек
Каналы : 2 канала
Частота : 48,0 КГц
Метод сжатия : С потерями
Размер потока : 63,8 Мбайт (15%)
Выравнивание : Соединение по промежуткам
Продолжительность промежутка : 42 мс. (1,00 видеокадр)

Аудио #2
Идентификатор : 2
Формат : MPEG Audio
Версия формата : Version 1
Профиль формата : Layer 3
Идентификатор кодека : 55
Идентификатор кодека/Подсказка : MP3
Продолжительность : 46 м.
Вид битрейта : Постоянный
Битрейт : 128 Кбит/сек
Каналы : 2 канала
Частота : 48,0 КГц
Метод сжатия : С потерями
Размер потока : 42,5 Мбайт (10%)
Выравнивание : Соединение по промежуткам
Продолжительность промежутка : 42 мс. (1,00 видеокадр)


Трекер:  [ 10-Июн-2018 13:18 ]

  

Скачать .torrent

Размер .torrent файла 45 KB


Размер: 8.74 GB
Хэш (hash) релиза: 3ab485b97809db383f5eeb9a116d16c8f8af7380
Подписка на обновления:

Торренты, похожие на Секретный агент МакГайвер MacGyver скачать торрент

Форум Название Автор Размер S L Добавлен
Зарубежные сериалы ·· Секретный агент МакГайвер / MacGyver / Сезон: 2 / Серии: 1-22 из 22 (Чарльз Коррелл, Александр Сингер, Майкл Прис) [1986-1987, США, Канада, боевик, драма, криминал, приключения, DVDRip] DVO (ДТВ) + Original Galfimbul 94693378098.82 GB 0 0 1524304088

12:48

21-Апр-18

Еще никто не оставлял запись к записи скачать торрент Секретный агент МакГайвер MacGyver . Будь первым!

!Обратная связь