François Rollin - Colères [VF] | Vanishing Line Garo | Nirvana - Live at the Paramount.

Скачать через торрент Как будем смотреть фейерверк: снизу или сбоку? Uchiage Hanabi, Shita kara Miru ka? Yoko kara Miru ka? бесплатно Аниме Все серии на русском torrent

Статистика раздачи
Размер:  7.49 GB   |    Зарегистрирован:  13 дней   |    .torrent скачан:  28 раз   |   
Раздают:  1  
   
загрузка...
 
Автор Сообщение

Galfimbul

avatar Galfimbul


Как будем смотреть фейерверк: снизу или сбоку? / Uchiage Hanabi, Shita kara Miru ka? Yoko kara Miru ka? / Fireworks, Should We See It from the Side or the Bottom?

Страна: Япония
Год выпуска: 2017
Жанр: романтика, драма, фантастика
Тип: Movie
Продолжительность: 90 мин.
Режиссер: Симбо Акиюки
Студия: SHAFT

Описание: Норимичи Шимада и его друзья, Юске, Миура и Дзюничи беззаботно живут подшучивая над своей учительницей и восхищаясь красотой одноклассницы Назуны Ойкавы. Юске, в частности, собирается признаться Назуне. Однако Назуна готовится покинуть город...
© Wikipedia

Качество: BDRip
Тип релиза: Без хардсаба
Формат видео: MKV
Наличие линковки: Нет
Релиз/Автор рипа: Jensen [Beatrice-Raws]
Видео: x264, AVC, 1920x1080, 10,8 Mb/s, 23.976 fps, Hi10P
Аудио: JAP(int), FLAC, 48.0 kHz, 2.0 ch, 1004 Kbps
Субтитры: RUS(ext), SRT, перевод: Ивашков Егор
Субтитры 2: RUS(ext), SRT, перевод: Ивашков Егор - версия для людей с нарушением слуха
ОбщееУникальный идентификатор: 272721565705236290701744165431951173262 (0xCD2C435320DE23D191F08390A3A7268E)Полное имя: D:\Film\anim\Serial\[Beatrice-Raws] Uchiage Hanabi, Shita kara Miru ka Yoko kara Miru ka [BDRip 1920x1080 x264 FLAC]\[Beatrice-Raws] Uchiage Hanabi, Shita kara Miru ka Yoko kara Miru ka [BDRip 1920x1080 x264 FLAC].mkvФормат: MatroskaВерсия формата: Version 4 / Version 2Размер файла: 7,49 ГбайтПродолжительность: 1 ч. 30 м.Режим общего битрейта: ПеременныйОбщий поток: 11,9 Мбит/секДата кодирования: UTC 2018-04-27 22:31:54Программа кодирования : mkvmerge v22.0.0 ('At The End Of The World') 64-bitБиблиотека кодирования : libebml v1.3.5 + libmatroska v1.4.8

ВидеоИдентификатор: 1Формат: AVCФормат/Информация: Advanced Video CodecПрофиль формата : High [email protected]Настройки формата: CABAC / 4 Ref FramesПараметр CABAC формата : ДаПараметр RefFrames формата: 4 кадраИдентификатор кодека: V_MPEG4/ISO/AVCПродолжительность: 1 ч. 30 м.Битрейт : 10,8 Мбит/секШирина : 1920 пикселейВысота : 1080 пикселейСоотношение сторон : 16:9Режим частоты кадров: ПостоянныйЧастота кадров : 23,976 (24000/1001) кадра/секЦветовое пространство : YUVСубдискретизация насыщенности : 4:2:0Битовая глубина: 10 битТип развёртки: ПрогрессивнаяБит/(Пиксели*Кадры) : 0.218Размер потока : 6,82 Гбайт (91%)Заголовок: BDrip by JensenБиблиотека кодирования : x264 core 152 r2851M ba24899 (DJATOM's build)Настройки программы : cabac=1 / ref=4 / deblock=1:1:-1 / analyse=0x3:0x113 / me=umh / subme=9 / psy=1 / psy_rd=1.00:0.00 / mixed_ref=1 / me_range=32 / chroma_me=1 / trellis=2 / 8x8dct=1 / cqm=0 / deadzone=21,11 / fast_pskip=1 / chroma_qp_offset=-2 / threads=34 / lookahead_threads=5 / sliced_threads=0 / nr=0 / decimate=1 / interlaced=0 / bluray_compat=0 / constrained_intra=0 / bframes=9 / b_pyramid=2 / b_adapt=2 / b_bias=0 / direct=1 / weightb=1 / open_gop=0 / weightp=2 / keyint=240 / keyint_min=23 / scenecut=40 / intra_refresh=0 / rc=crf / mbtree=0 / crf=15.0000 / qcomp=0.72 / qpmin=0 / qpmax=81 / qpstep=4 / ip_ratio=1.40 / pb_ratio=1.30 / aq=1:0.85Язык : JapaneseDefault: ДаForced: НетЦветовой диапазон: LimitedОсновные цвета: BT.709Характеристики трансфера: BT.709Коэффициенты матрицы: BT.709

АудиоИдентификатор: 2Формат: FLACФормат/Информация : Free Lossless Audio CodecИдентификатор кодека: A_FLACПродолжительность: 1 ч. 30 м.Вид битрейта: ПеременныйБитрейт: 1004 Кбит/секКаналы: 2 каналаРасположение каналов: Front: L RЧастота: 48,0 КГцЧастота кадров: 11,719 кадров/сек (4096 SPF)Битовая глубина: 24 битРазмер потока : 647 Мбайт (8%)Библиотека кодирования : libFLAC 1.3.2 (UTC 2017-01-01)Язык: JapaneseDefault: ДаForced: Нет

ТекстИдентификатор: 3Формат: PGSРежим смешивания : zlibИдентификатор кодека: S_HDMV/PGSИдентификатор кодека/Информация: Picture based subtitle format used on BDs/HD-DVDsПродолжительность : 1 ч. 28 м.Битрейт : 161 Кбит/секElementCount: 6060Размер потока : 102 Мбайт (1%)Заголовок : JpnЯзык : JapaneseDefault : НетForced: Нет

Меню00:00:00.000 : en:Part A 0100:01:41.852 : en:OP00:02:32.152 : en:Part A 0200:08:01.314 : en:Part A 0300:11:11.588 : en:Part A 0400:17:12.531 : en:Part A 0500:19:47.436 : en:Part A 0600:25:20.436 : en:Part A 0700:30:23.238 : en:Part A 0800:33:41.394 : en:Part B 0100:36:05.080 : en:Part B 0200:39:23.778 : en:Part B 0300:43:45.540 : en:Part B 0400:47:31.348 : en:Part B 0500:53:24.326 : en:Part C 0100:57:20.646 : en:Part C 0201:00:32.295 : en:Part C 0301:07:20.536 : en:Part D 0101:13:29.280 : en:Part D 0201:18:22.114 : en:Part D 0301:25:10.689 : en:ED
...5557951 - BDRemux


Трекер:  [ 10-Июн-2018 13:01 ]

  

Скачать .torrent

Размер .torrent файла 19 KB


Размер: 7.49 GB
Хэш (hash) релиза: 1841afae53f544140d1866a3ffb8875cc61056d4
Подписка на обновления:

Еще никто не оставлял запись к записи скачать торрент Как будем смотреть фейерверк: снизу или сбоку? Uchiage Hanabi, Shita kara Miru ka? Yoko kara Miru ka? . Будь первым!

!Обратная связь