Treasure Island 1978 S01 720p BluRay x264-CtrlHD | Printing tomorrow Are we alone ? | Verdorben (Rotten)

Скачать через торрент Гусеничка Sametka Фильм бесплатно в хорошем качестве torrent

Скачивайте на UnionPeer.org фильмы через торрент без регистрации. Новинки кино в хорошем качестве через торрент. На UnionPeer.org можно скачать через торрент фильмы 2014 и 2015 годов. Самые новые фильмы.

Скачать торрент Гусеничка Sametka бесплатно через .torrent фильм мультфильм сериал

Статистика раздачи
Размер:  270 MB   |    Зарегистрирован:  14 дней   |    .torrent скачан:  31 раз   |   
Раздают:  1  
   
загрузка...
 
Автор Сообщение

Galfimbul

avatar Galfimbul


Гусеничка / Sametka

Страна: Чехословакия
Жанр: мультфильм
Продолжительность: 00:15:08
Год выпуска: 1967
Перевод: не требуется
Русские субтитры: нет

Режиссёр: Зденек Милер / Zdenek Miler

Описание: Музыкальный продюсер встречает на улице мальчика, который выучил маленькую гусеницу танцевать под губную гармошку. Продюсер подписывает с мальчиком контракт и они отправляются в концертный тур. Вскоре танцующая гусеничка становится мировой знаменитостью.

Качество: TVRip
Формат: AVI
Видео: 2292 kbps, 704х544 (1.294), 25.000 fps, MPEG-4 Visual (XviD)
Аудио: 192 kbps, 48.0 kHz, 16 bits, 2 channels, AC-3
Субтитры: отсутствуют
GeneralComplete name : Sametka (1967).aviFormat : AVIFormat/Info : Audio Video InterleaveFile size : 270 MiBDuration : 15mn 8sOverall bit rate : 2 495 KbpsWriting application : Lavf55.19.104

VideoID : 0Format : MPEG-4 VisualFormat profile : [email protected] settings, BVOP : NoFormat settings, QPel : NoFormat settings, GMC : No warppointsFormat settings, Matrix : Default (H.263)Codec ID : XVIDCodec ID/Hint : XviDDuration : 15mn 8sBit rate : 2 292 KbpsWidth : 704 pixelsHeight : 544 pixelsDisplay aspect ratio : 1.294Original display aspect ratio : 1.289Frame rate : 25.000 fpsColor space : YUVChroma subsampling : 4:2:0Bit depth : 8 bitsScan type : ProgressiveCompression mode : LossyBits/(Pixel*Frame) : 0.239Stream size : 248 MiB (92%)Writing library : XviD 73

AudioID : 1Format : AC-3Format/Info : Audio Coding 3Mode extension : CM (complete main)Format settings, Endianness : BigCodec ID : 2000Duration : 15mn 8sBit rate mode : ConstantBit rate : 192 KbpsChannel(s) : 2 channelsChannel positions : Front: L RSampling rate : 48.0 KHzBit depth : 16 bitsCompression mode : LossyStream size : 20.8 MiB (8%)Alignment : Aligned on interleavesInterleave, duration : 32 ms (0.80 video frame)


Трекер:  [ 10-Июн-2018 10:30 ]

  

Скачать .torrent

Размер .torrent файла 11 KB


Размер: 270 MB
Хэш (hash) релиза: f5942100e861cd64fd76ed2cf00a615707b2136f
Подписка на обновления:

Еще никто не оставлял запись к записи скачать торрент Гусеничка Sametka . Будь первым!

!Обратная связь