6J Sam le pompier Saison 3 Episode 13 La cabane france 5 | 15.06.2018 | 10 min | Microsoft Security Essentials v4.5.216.0. | Khajoor Pe Atke (2018) Hindi Full Movie pDVDRip 1GB 350MB x264

Скачать через торрент музыку бесплатно без регистрации torrent

Статистика раздачи
Размер:  311 MB   |    Зарегистрирован:  15 дней   |    .torrent скачан:  40 раз   |   
Раздают:  1  
   
загрузка...
 
Автор Сообщение

Galfimbul

avatar Galfimbul


Jesper Kyd - Kane & Lynch Dead Men

Жанр: Score, Soundtrack, Electronic
Композитор: Jesper Kyd
Год выпуска диска: 2007
Аудиокодек: FLAC (*.flac)
Тип рипа: tracks+.cue
Битрейт аудио: lossless
Источник: ed2k, soulseek
Наличие сканов в содержимом раздачи: нет
Продолжительность: 0:14:13

Треклист:

01. Kane's Family Portrait
02. Retomoto Death Squad
03. Subway Fight
04. Lynch Breaks Down
05. Mall Fight
06. Training Ambience
<div class="sp-wrap">
<div class="sp-head folded">Лог создания рипа</div>
<div class="sp-body">

Exact Audio Copy V1.3 from 2. September 2016

EAC extraction logfile from 29. March 2017, 19:36

Jesper Kyd / Kane & Lynch: Dead Men

Used drive : HL-DT-STDVDRAM GH24NSD1 Adapter: 1 ID: 0

Read mode : SecureUtilize accurate stream : YesDefeat audio cache : YesMake use of C2 pointers : No

Read offset correction : 6Overread into Lead-In and Lead-Out : NoFill up missing offset samples with silence : YesDelete leading and trailing silent blocks : NoNull samples used in CRC calculations : YesUsed interface : Native Win32 interface for Win NT & 2000Gap handling : Appended to previous track

Used output format : User Defined EncoderSelected bitrate : 768 kBit/sQuality : HighAdd ID3 tag : NoCommand line compressor : C:\Program Files (x86)\Exact Audio Copy\FLAC\FLAC.EXEAdditional command line options : -8 -e -p -V -T "ARTIST=%artist%" -T "TITLE=%title%" -T "ALBUM=%albumtitle%" -T "DATE=%year%" -T "TRACKNUMBER=%tracknr%" -T "GENRE=%genre%" -T "PERFORMER=%albuminterpret%" -T "COMPOSER=%composer%" %haslyrics%--tag-from-file=LYRICS="%lyricsfile%"%haslyrics% -T "TOTALDISCS=%totalcds%" -T "TOTALTRACKS=%numtracks%" -T "COMMENT=%comment%" %source% -o %dest%

TOC of the extracted CD

Track | Start | Length | Start sector | End sector --------------------------------------------------------- 1 | 0:00.00 | 1:44.19 | 0 | 7818 2 | 1:44.19 | 2:37.05 | 7819 | 19598 3 | 4:21.24 | 1:38.04 | 19599 | 26952 4 | 5:59.28 | 2:07.00 | 26953 | 36477 5 | 8:06.28 | 2:37.63 | 36478 | 48315 6 | 10:44.16 | 3:28.71 | 48316 | 63986

Track 1

Filename C:\EAC\Jesper Kyd - Kane & Lynch- Dead Men\01. Kane's Family Portrait.wav

Pre-gap length 0:00:02.00

Peak level 66.8 % Extraction speed 0.6 X Track quality 99.8 % Test CRC CC1D1502 Copy CRC CC1D1502 Accurately ripped (confidence 3) [7CF875D2] (AR v2) Copy OK

Track 2

Filename C:\EAC\Jesper Kyd - Kane & Lynch- Dead Men\02. Retomoto Death Squad.wav

Peak level 96.5 % Extraction speed 1.0 X Track quality 100.0 % Test CRC FAA5EB28 Copy CRC FAA5EB28 Accurately ripped (confidence 3) [EEC493A0] (AR v2) Copy OK

Track 3

Filename C:\EAC\Jesper Kyd - Kane & Lynch- Dead Men\03. Subway Fight.wav

Peak level 100.0 % Extraction speed 0.9 X Track quality 100.0 % Test CRC 783E513F Copy CRC 783E513F Accurately ripped (confidence 3) [06E9EDD5] (AR v2) Copy OK

Track 4

Filename C:\EAC\Jesper Kyd - Kane & Lynch- Dead Men\04. Lynch Breaks Down.wav

Peak level 100.0 % Extraction speed 1.0 X Track quality 100.0 % Test CRC 0842C342 Copy CRC 0842C342 Accurately ripped (confidence 3) [75698019] (AR v2) Copy OK

Track 5

Filename C:\EAC\Jesper Kyd - Kane & Lynch- Dead Men\05. Mall Fight.wav

Peak level 100.0 % Extraction speed 1.2 X Track quality 100.0 % Test CRC C8E4DA95 Copy CRC C8E4DA95 Accurately ripped (confidence 3) [8AF44C2C] (AR v2) Copy OK

Track 6

Filename C:\EAC\Jesper Kyd - Kane & Lynch- Dead Men\06. Training Ambience.wav

Peak level 99.3 % Extraction speed 1.3 X Track quality 100.0 % Test CRC B658DE10 Copy CRC B658DE10 Accurately ripped (confidence 3) [5097F2C0] (AR v2) Copy OK

All tracks accurately ripped

No errors occurred

End of status report

---- CUETools DB Plugin V2.1.6

[CTDB TOCID: qUhh5C0dB7_izDng5wVGUPspxHg-] foundSubmit result: qUhh5C0dB7_izDng5wVGUPspxHg- has been confirmedTrack | CTDB Status 1 | (5/5) Accurately ripped 2 | (5/5) Accurately ripped 3 | (5/5) Accurately ripped 4 | (5/5) Accurately ripped 5 | (5/5) Accurately ripped 6 | (5/5) Accurately ripped

==== Log checksum 47977A975354ECCDF11096C7D6E818DDF47143618A2B811604424F60D3C028E3 ====
REM GENRE ElectronicREM DATE 2007REM DISCID 42035506REM COMMENT "ExactAudioCopy v1.3"PERFORMER "Jesper Kyd"TITLE "Kane & Lynch: Dead Men"REM COMPOSER ""FILE "Jesper Kyd - Kane & Lynch- Dead Men\01. Kane's Family Portrait.wav" WAVE TRACK 01 AUDIO TITLE "Kane's Family Portrait" PERFORMER "Jesper Kyd" REM COMPOSER "" FLAGS DCP INDEX 01 00:00:00FILE "Jesper Kyd - Kane & Lynch- Dead Men\02. Retomoto Death Squad.wav" WAVE TRACK 02 AUDIO TITLE "Retomoto Death Squad" PERFORMER "Jesper Kyd" REM COMPOSER "" FLAGS DCP INDEX 01 00:00:00FILE "Jesper Kyd - Kane & Lynch- Dead Men\03. Subway Fight.wav" WAVE TRACK 03 AUDIO TITLE "Subway Fight" PERFORMER "Jesper Kyd" REM COMPOSER "" FLAGS DCP INDEX 01 00:00:00FILE "Jesper Kyd - Kane & Lynch- Dead Men\04. Lynch Breaks Down.wav" WAVE TRACK 04 AUDIO TITLE "Lynch Breaks Down" PERFORMER "Jesper Kyd" REM COMPOSER "" FLAGS DCP INDEX 01 00:00:00FILE "Jesper Kyd - Kane & Lynch- Dead Men\05. Mall Fight.wav" WAVE TRACK 05 AUDIO TITLE "Mall Fight" PERFORMER "Jesper Kyd" REM COMPOSER "" FLAGS DCP INDEX 01 00:00:00FILE "Jesper Kyd - Kane & Lynch- Dead Men\06. Training Ambience.wav" WAVE TRACK 06 AUDIO TITLE "Training Ambience" PERFORMER "Jesper Kyd" REM COMPOSER "" FLAGS DCP INDEX 01 00:00:00
AUDIOCHECKER v2.0 beta (build 457) - by Dester - [email protected]~~~~~~~~~~~~~~~~~~~~~~~~~~~~~~~~~~

Started at: четверг, 07. 06. 2018. - 1:56.316 files found

1 -===- Z:\Jesper Kyd - Kane & Lynch Dead Men Soundtracks (2007) [FLAC]\Jesper Kyd - Kane & Lynch Dead Men (2007) (Bonus Disc) [FLAC] (CD)\01. Kane's Family Portrait.flac Extracted successfully Conclusion: this track is CDDA with probability 100% Tempfile successfully deleted.

2 -===- Z:\Jesper Kyd - Kane & Lynch Dead Men Soundtracks (2007) [FLAC]\Jesper Kyd - Kane & Lynch Dead Men (2007) (Bonus Disc) [FLAC] (CD)\02. Retomoto Death Squad.flac Extracted successfully Conclusion: this track is CDDA with probability 100% Tempfile successfully deleted.

3 -===- Z:\Jesper Kyd - Kane & Lynch Dead Men Soundtracks (2007) [FLAC]\Jesper Kyd - Kane & Lynch Dead Men (2007) (Bonus Disc) [FLAC] (CD)\03. Subway Fight.flac Extracted successfully Conclusion: this track is CDDA with probability 100% Tempfile successfully deleted.

4 -===- Z:\Jesper Kyd - Kane & Lynch Dead Men Soundtracks (2007) [FLAC]\Jesper Kyd - Kane & Lynch Dead Men (2007) (Bonus Disc) [FLAC] (CD)\04. Lynch Breaks Down.flac Extracted successfully Conclusion: this track is CDDA with probability 100% Tempfile successfully deleted.

5 -===- Z:\Jesper Kyd - Kane & Lynch Dead Men Soundtracks (2007) [FLAC]\Jesper Kyd - Kane & Lynch Dead Men (2007) (Bonus Disc) [FLAC] (CD)\05. Mall Fight.flac Extracted successfully Conclusion: this track is CDDA with probability 100% Tempfile successfully deleted.

6 -===- Z:\Jesper Kyd - Kane & Lynch Dead Men Soundtracks (2007) [FLAC]\Jesper Kyd - Kane & Lynch Dead Men (2007) (Bonus Disc) [FLAC] (CD)\06. Training Ambience.flac Extracted successfully Conclusion: this track is CDDA with probability 92% Tempfile successfully deleted.

Finished at: четверг, 07. 06. 2018. - 1:57.10 (operation time: 0:00.38)
</div>
</div>
Продолжительность: 0:44:03

Треклист:

01. Kane's Family Portrait
02. Mall Fight
03. Bustout Part 1
04. Bustout Part 2
05. Bustout Part 3
06. Skyscraper Rooftop
07. Rappel Down Skyscraper
08. Tokyo Action
09. Lynch Breaks Down (Ambient Mix)
10. Action In Havana
11. Meeting With Retomoto
12. Retomoto Double Cross
13. Subway Fight
14. Entering The Prison
15. Prison Suspense
16. Prison Riot
17. Lynch Breaks Down
18. Truck Fight
19. Training Starts
20. Venezuela Flashback Test
21. Venezuela Stealth
22. Venezuela Suspense
23. Kane's Family Portrait V2
<div class="sp-wrap">
<div class="sp-head folded">Лог создания рипа</div>
<div class="sp-body">

Exact Audio Copy V1.3 from 2. September 2016

EAC extraction logfile from 20. February 2018, 8:24

Jesper Kyd / Kane & Lynch: Dead Men (Original Soundtrack) (Promo)

Used drive : ATAPI iHAS324 F Adapter: 1 ID: 1

Read mode : SecureUtilize accurate stream : YesDefeat audio cache : YesMake use of C2 pointers : No

Read offset correction : 6Overread into Lead-In and Lead-Out : NoFill up missing offset samples with silence : YesDelete leading and trailing silent blocks : NoNull samples used in CRC calculations : YesUsed interface : Native Win32 interface for Win NT & 2000Gap handling : Appended to previous track

Used output format : User Defined EncoderSelected bitrate : 1024 kBit/sQuality : HighAdd ID3 tag : NoCommand line compressor : D:\iROpack\FLAC\flac.exeAdditional command line options : -8 -V -T "ARTIST=%artist%" -T "TITLE=%title%" -T "ALBUM=%albumtitle%" -T "DATE=%year%" -T "TRACKNUMBER=%tracknr%" -T "GENRE=%genre%" %source% -o %dest%

TOC of the extracted CD

Track | Start | Length | Start sector | End sector --------------------------------------------------------- 1 | 0:00.00 | 1:43.73 | 0 | 7797 2 | 1:43.73 | 2:31.65 | 7798 | 19187 3 | 4:15.63 | 1:38.31 | 19188 | 26568 4 | 5:54.19 | 2:26.52 | 26569 | 37570 5 | 8:20.71 | 1:17.12 | 37571 | 43357 6 | 9:38.08 | 0:42.08 | 43358 | 46515 7 | 10:20.16 | 1:00.48 | 46516 | 51063 8 | 11:20.64 | 1:52.20 | 51064 | 59483 9 | 13:13.09 | 2:26.37 | 59484 | 70470 10 | 15:39.46 | 1:59.68 | 70471 | 79463 11 | 17:39.39 | 1:17.09 | 79464 | 85247 12 | 18:56.48 | 2:34.69 | 85248 | 96866 13 | 21:31.42 | 1:38.05 | 96867 | 104221 14 | 23:09.47 | 2:19.70 | 104222 | 114716 15 | 25:29.42 | 2:12.59 | 114717 | 124675 16 | 27:42.26 | 2:28.72 | 124676 | 135847 17 | 30:11.23 | 2:07.01 | 135848 | 145373 18 | 32:18.24 | 1:46.55 | 145374 | 153378 19 | 34:05.04 | 2:46.59 | 153379 | 165887 20 | 36:51.63 | 1:12.26 | 165888 | 171313 21 | 38:04.14 | 2:08.59 | 171314 | 180972 22 | 40:12.73 | 2:00.56 | 180973 | 190028 23 | 42:13.54 | 1:49.27 | 190029 | 198230

Track 1

Filename R:\iRO\Rip\Kane & Lynch Dead Men (Original Soundtrack) (Promo)\01-Jesper Kyd-Kane's Family Portrait.wav

Pre-gap length 0:00:02.00

Peak level 66.8 % Extraction speed 3.2 X Track quality 100.0 % Test CRC E044B180 Copy CRC E044B180 Accurately ripped (confidence 1) [5B8589AD] (AR v2) Copy OK

Track 2

Filename R:\iRO\Rip\Kane & Lynch Dead Men (Original Soundtrack) (Promo)\02-Jesper Kyd-Mall Fight.wav

Peak level 100.0 % Extraction speed 3.8 X Track quality 100.0 % Test CRC EE1EB251 Copy CRC EE1EB251 Accurately ripped (confidence 1) [7E7FE029] (AR v2) Copy OK

Track 3

Filename R:\iRO\Rip\Kane & Lynch Dead Men (Original Soundtrack) (Promo)\03-Jesper Kyd-Bustout Part 1.wav

Peak level 100.0 % Extraction speed 3.6 X Track quality 100.0 % Test CRC A5C7AD39 Copy CRC A5C7AD39 Accurately ripped (confidence 1) [A7B76961] (AR v2) Copy OK

Track 4

Filename R:\iRO\Rip\Kane & Lynch Dead Men (Original Soundtrack) (Promo)\04-Jesper Kyd-Bustout Part 2.wav

Peak level 91.2 % Extraction speed 3.1 X Track quality 99.9 % Test CRC 6FDAB891 Copy CRC 6FDAB891 Accurately ripped (confidence 1) [613F0333] (AR v2) Copy OK

Track 5

Filename R:\iRO\Rip\Kane & Lynch Dead Men (Original Soundtrack) (Promo)\05-Jesper Kyd-Bustout Part 3.wav

Peak level 88.0 % Extraction speed 3.6 X Track quality 100.0 % Test CRC E4502E7E Copy CRC E4502E7E Accurately ripped (confidence 1) [5FF6F6F3] (AR v2) Copy OK

Track 6

Filename R:\iRO\Rip\Kane & Lynch Dead Men (Original Soundtrack) (Promo)\06-Jesper Kyd-Skyscraper Rooftop.wav

Peak level 78.9 % Extraction speed 2.8 X Track quality 100.0 % Test CRC 705E63B5 Copy CRC 705E63B5 Accurately ripped (confidence 1) [D6A0C3D6] (AR v2) Copy OK

Track 7

Filename R:\iRO\Rip\Kane & Lynch Dead Men (Original Soundtrack) (Promo)\07-Jesper Kyd-Rappel Down Skyscraper.wav

Peak level 100.0 % Extraction speed 3.3 X Track quality 100.0 % Test CRC 7A21F3E7 Copy CRC 7A21F3E7 Accurately ripped (confidence 1) [0DD932A0] (AR v2) Copy OK

Track 8

Filename R:\iRO\Rip\Kane & Lynch Dead Men (Original Soundtrack) (Promo)\08-Jesper Kyd-Tokyo Action.wav

Peak level 100.0 % Extraction speed 4.2 X Track quality 100.0 % Test CRC 9CC81D3C Copy CRC 9CC81D3C Accurately ripped (confidence 1) [6B6A46FE] (AR v2) Copy OK

Track 9

Filename R:\iRO\Rip\Kane & Lynch Dead Men (Original Soundtrack) (Promo)\09-Jesper Kyd-Lynch Breaks Down (Ambient Mix).wav

Peak level 95.3 % Extraction speed 4.7 X Track quality 100.0 % Test CRC BAFD979D Copy CRC BAFD979D Accurately ripped (confidence 1) [CCDB43C9] (AR v2) Copy OK

Track 10

Filename R:\iRO\Rip\Kane & Lynch Dead Men (Original Soundtrack) (Promo)\10-Jesper Kyd-Action In Havana.wav

Peak level 82.5 % Extraction speed 4.6 X Track quality 100.0 % Test CRC 93E915B2 Copy CRC 93E915B2 Accurately ripped (confidence 1) [0989B3F4] (AR v2) Copy OK

Track 11

Filename R:\iRO\Rip\Kane & Lynch Dead Men (Original Soundtrack) (Promo)\11-Jesper Kyd-Meeting With Retomoto.wav

Peak level 100.0 % Extraction speed 4.1 X Track quality 100.0 % Test CRC 0ACDC67B Copy CRC 0ACDC67B Accurately ripped (confidence 1) [36DDF922] (AR v2) Copy OK

Track 12

Filename R:\iRO\Rip\Kane & Lynch Dead Men (Original Soundtrack) (Promo)\12-Jesper Kyd-Retomoto Double Cross.wav

Peak level 96.5 % Extraction speed 5.0 X Track quality 100.0 % Test CRC 37237535 Copy CRC 37237535 Accurately ripped (confidence 1) [05B73601] (AR v2) Copy OK

Track 13

Filename R:\iRO\Rip\Kane & Lynch Dead Men (Original Soundtrack) (Promo)\13-Jesper Kyd-Subway Fight.wav

Peak level 81.1 % Extraction speed 4.7 X Track quality 100.0 % Test CRC 73C73BE6 Copy CRC 73C73BE6 Accurately ripped (confidence 1) [E8327C43] (AR v2) Copy OK

Track 14

Filename R:\iRO\Rip\Kane & Lynch Dead Men (Original Soundtrack) (Promo)\14-Jesper Kyd-Entering The Prison.wav

Peak level 99.3 % Extraction speed 5.2 X Track quality 100.0 % Test CRC 62232BFD Copy CRC 62232BFD Accurately ripped (confidence 1) [9E93597B] (AR v2) Copy OK

Track 15

Filename R:\iRO\Rip\Kane & Lynch Dead Men (Original Soundtrack) (Promo)\15-Jesper Kyd-Prison Suspense.wav

Peak level 70.5 % Extraction speed 3.9 X Track quality 99.9 % Test CRC 8CE44EC7 Copy CRC 8CE44EC7 Accurately ripped (confidence 1) [6F72BF93] (AR v2) Copy OK

Track 16

Filename R:\iRO\Rip\Kane & Lynch Dead Men (Original Soundtrack) (Promo)\16-Jesper Kyd-Prison Riot.wav

Peak level 83.0 % Extraction speed 5.5 X Track quality 100.0 % Test CRC 60EC985E Copy CRC 60EC985E Accurately ripped (confidence 1) [2EF4F3A2] (AR v2) Copy OK

Track 17

Filename R:\iRO\Rip\Kane & Lynch Dead Men (Original Soundtrack) (Promo)\17-Jesper Kyd-Lynch Breaks Down.wav

Peak level 100.0 % Extraction speed 5.5 X Track quality 100.0 % Test CRC AB0E6498 Copy CRC AB0E6498 Accurately ripped (confidence 1) [A7323818] (AR v2) Copy OK

Track 18

Filename R:\iRO\Rip\Kane & Lynch Dead Men (Original Soundtrack) (Promo)\18-Jesper Kyd-Truck Fight.wav

Peak level 62.6 % Extraction speed 5.3 X Track quality 100.0 % Test CRC D3043FF3 Copy CRC D3043FF3 Accurately ripped (confidence 1) [34A370E2] (AR v2) Copy OK

Track 19

Filename R:\iRO\Rip\Kane & Lynch Dead Men (Original Soundtrack) (Promo)\19-Jesper Kyd-Training Starts.wav

Peak level 99.3 % Extraction speed 6.0 X Track quality 100.0 % Test CRC 0EF0674F Copy CRC 0EF0674F Accurately ripped (confidence 1) [EE01C96C] (AR v2) Copy OK

Track 20

Filename R:\iRO\Rip\Kane & Lynch Dead Men (Original Soundtrack) (Promo)\20-Jesper Kyd-Venezuela Flashback Test.wav

Peak level 98.4 % Extraction speed 3.1 X Track quality 99.8 % Test CRC 4EA0EE48 Copy CRC 4EA0EE48 Accurately ripped (confidence 1) [15C2B0EE] (AR v2) Copy OK

Track 21

Filename R:\iRO\Rip\Kane & Lynch Dead Men (Original Soundtrack) (Promo)\21-Jesper Kyd-Venezuela Stealth.wav

Peak level 99.6 % Extraction speed 4.3 X Track quality 99.9 % Test CRC B91D225A Copy CRC B91D225A Accurately ripped (confidence 1) [932B1415] (AR v2) Copy OK

Track 22

Filename R:\iRO\Rip\Kane & Lynch Dead Men (Original Soundtrack) (Promo)\22-Jesper Kyd-Venezuela Suspense.wav

Peak level 100.0 % Extraction speed 5.8 X Track quality 100.0 % Test CRC 472F85F9 Copy CRC 472F85F9 Accurately ripped (confidence 1) [B60F55CD] (AR v2) Copy OK

Track 23

Filename R:\iRO\Rip\Kane & Lynch Dead Men (Original Soundtrack) (Promo)\23-Jesper Kyd-Kane's Family Portrait.wav

Peak level 72.2 % Extraction speed 5.8 X Track quality 100.0 % Test CRC B252C3CF Copy CRC B252C3CF Accurately ripped (confidence 1) [45AA54A9] (AR v2) Copy OK

All tracks accurately ripped

No errors occurred

End of status report

---- CUETools DB Plugin V2.1.6

[CTDB TOCID: EzjjoWE_Q2ukHeVqANPRzoU9r44-] disk not present in databaseSubmit result: EzjjoWE_Q2ukHeVqANPRzoU9r44- has been uploaded

==== Log checksum C2E18B04644C700B2A99A72A144B02FF563C3DEF809A76D92B31B65F64216656 ====
REM GENRE SoundtrackREM DATE 2007REM DISCID 1F0A5317REM COMMENT "ExactAudioCopy v1.3"PERFORMER "Jesper Kyd"TITLE "Kane & Lynch: Dead Men (Original Soundtrack) (Promo)"FILE "01. Kane's Family Portrait.wav" WAVE TRACK 01 AUDIO TITLE "Kane's Family Portrait" PERFORMER "Jesper Kyd" INDEX 01 00:00:00FILE "02. Mall Fight.wav" WAVE TRACK 02 AUDIO TITLE "Mall Fight" PERFORMER "Jesper Kyd" INDEX 01 00:00:00FILE "03. Bustout Part 1.wav" WAVE TRACK 03 AUDIO TITLE "Bustout Part 1" PERFORMER "Jesper Kyd" INDEX 01 00:00:00FILE "04. Bustout Part 2.wav" WAVE TRACK 04 AUDIO TITLE "Bustout Part 2" PERFORMER "Jesper Kyd" INDEX 01 00:00:00FILE "05. Bustout Part 3.wav" WAVE TRACK 05 AUDIO TITLE "Bustout Part 3" PERFORMER "Jesper Kyd" INDEX 01 00:00:00FILE "06. Skyscraper Rooftop.wav" WAVE TRACK 06 AUDIO TITLE "Skyscraper Rooftop" PERFORMER "Jesper Kyd" INDEX 01 00:00:00FILE "07. Rappel Down Skyscraper.wav" WAVE TRACK 07 AUDIO TITLE "Rappel Down Skyscraper" PERFORMER "Jesper Kyd" INDEX 01 00:00:00FILE "08. Tokyo Action.wav" WAVE TRACK 08 AUDIO TITLE "Tokyo Action" PERFORMER "Jesper Kyd" INDEX 01 00:00:00FILE "09. Lynch Breaks Down (Ambient Mix).wav" WAVE TRACK 09 AUDIO TITLE "Lynch Breaks Down (Ambient Mix)" PERFORMER "Jesper Kyd" INDEX 01 00:00:00FILE "10. Action In Havana.wav" WAVE TRACK 10 AUDIO TITLE "Action In Havana" PERFORMER "Jesper Kyd" INDEX 01 00:00:00FILE "11. Meeting With Retomoto.wav" WAVE TRACK 11 AUDIO TITLE "Meeting With Retomoto" PERFORMER "Jesper Kyd" INDEX 01 00:00:00FILE "12. Retomoto Double Cross.wav" WAVE TRACK 12 AUDIO TITLE "Retomoto Double Cross" PERFORMER "Jesper Kyd" INDEX 01 00:00:00FILE "13. Subway Fight.wav" WAVE TRACK 13 AUDIO TITLE "Subway Fight" PERFORMER "Jesper Kyd" INDEX 01 00:00:00FILE "14. Entering The Prison.wav" WAVE TRACK 14 AUDIO TITLE "Entering The Prison" PERFORMER "Jesper Kyd" INDEX 01 00:00:00FILE "15. Prison Suspense.wav" WAVE TRACK 15 AUDIO TITLE "Prison Suspense" PERFORMER "Jesper Kyd" INDEX 01 00:00:00FILE "16. Prison Riot.wav" WAVE TRACK 16 AUDIO TITLE "Prison Riot" PERFORMER "Jesper Kyd" INDEX 01 00:00:00FILE "17. Lynch Breaks Down.wav" WAVE TRACK 17 AUDIO TITLE "Lynch Breaks Down" PERFORMER "Jesper Kyd" INDEX 01 00:00:00FILE "18. Truck Fight.wav" WAVE TRACK 18 AUDIO TITLE "Truck Fight" PERFORMER "Jesper Kyd" INDEX 01 00:00:00FILE "19. Training Starts.wav" WAVE TRACK 19 AUDIO TITLE "Training Starts" PERFORMER "Jesper Kyd" INDEX 01 00:00:00FILE "20. Venezuela Flashback Test.wav" WAVE TRACK 20 AUDIO TITLE "Venezuela Flashback Test" PERFORMER "Jesper Kyd" INDEX 01 00:00:00FILE "21. Venezuela Stealth.wav" WAVE TRACK 21 AUDIO TITLE "Venezuela Stealth" PERFORMER "Jesper Kyd" INDEX 01 00:00:00FILE "22. Venezuela Suspense.wav" WAVE TRACK 22 AUDIO TITLE "Venezuela Suspense" PERFORMER "Jesper Kyd" INDEX 01 00:00:00FILE "23. Kane's Family Portrait V2.wav" WAVE TRACK 23 AUDIO TITLE "Kane's Family Portrait" PERFORMER "Jesper Kyd" INDEX 01 00:00:00
AUDIOCHECKER v2.0 beta (build 457) - by Dester - [email protected]~~~~~~~~~~~~~~~~~~~~~~~~~~~~~~~~~~

Started at: понедельник, 26. 03. 2018. - 1:30.5923 files found

01 -===- Z:\Jesper Kyd - Kane & Lynch Dead Men Soundtracks (2007) [FLAC]\Jesper Kyd - Kane & Lynch Dead Men (Original Soundtrack) (2007) (Promo) [FLAC] (CD)\01. Kane's Family Portrait.flac Extracted successfully Conclusion: this track is CDDA with probability 100% Tempfile successfully deleted.

02 -===- Z:\Jesper Kyd - Kane & Lynch Dead Men Soundtracks (2007) [FLAC]\Jesper Kyd - Kane & Lynch Dead Men (Original Soundtrack) (2007) (Promo) [FLAC] (CD)\02. Mall Fight.flac Extracted successfully Conclusion: this track is CDDA with probability 100% Tempfile successfully deleted.

03 -===- Z:\Jesper Kyd - Kane & Lynch Dead Men Soundtracks (2007) [FLAC]\Jesper Kyd - Kane & Lynch Dead Men (Original Soundtrack) (2007) (Promo) [FLAC] (CD)\03. Bustout Part 1.flac Extracted successfully Conclusion: this track is CDDA with probability 100% Tempfile successfully deleted.

04 -===- Z:\Jesper Kyd - Kane & Lynch Dead Men Soundtracks (2007) [FLAC]\Jesper Kyd - Kane & Lynch Dead Men (Original Soundtrack) (2007) (Promo) [FLAC] (CD)\04. Bustout Part 2.flac Extracted successfully Conclusion: this track is CDDA with probability 100% Tempfile successfully deleted.

05 -===- Z:\Jesper Kyd - Kane & Lynch Dead Men Soundtracks (2007) [FLAC]\Jesper Kyd - Kane & Lynch Dead Men (Original Soundtrack) (2007) (Promo) [FLAC] (CD)\05. Bustout Part 3.flac Extracted successfully Conclusion: this track is CDDA with probability 99% Tempfile successfully deleted.

06 -===- Z:\Jesper Kyd - Kane & Lynch Dead Men Soundtracks (2007) [FLAC]\Jesper Kyd - Kane & Lynch Dead Men (Original Soundtrack) (2007) (Promo) [FLAC] (CD)\06. Skyscraper Rooftop.flac Extracted successfully Conclusion: this track is CDDA with probability 99% Tempfile successfully deleted.

07 -===- Z:\Jesper Kyd - Kane & Lynch Dead Men Soundtracks (2007) [FLAC]\Jesper Kyd - Kane & Lynch Dead Men (Original Soundtrack) (2007) (Promo) [FLAC] (CD)\07. Rappel Down Skyscraper.flac Extracted successfully Conclusion: this track is CDDA with probability 100% Tempfile successfully deleted.

08 -===- Z:\Jesper Kyd - Kane & Lynch Dead Men Soundtracks (2007) [FLAC]\Jesper Kyd - Kane & Lynch Dead Men (Original Soundtrack) (2007) (Promo) [FLAC] (CD)\08. Tokyo Action.flac Extracted successfully Conclusion: this track is CDDA with probability 100% Tempfile successfully deleted.

09 -===- Z:\Jesper Kyd - Kane & Lynch Dead Men Soundtracks (2007) [FLAC]\Jesper Kyd - Kane & Lynch Dead Men (Original Soundtrack) (2007) (Promo) [FLAC] (CD)\09. Lynch Breaks Down (Ambient Mix).flac Extracted successfully Conclusion: this track is CDDA with probability 100% Tempfile successfully deleted.

10 -===- Z:\Jesper Kyd - Kane & Lynch Dead Men Soundtracks (2007) [FLAC]\Jesper Kyd - Kane & Lynch Dead Men (Original Soundtrack) (2007) (Promo) [FLAC] (CD)\10. Action In Havana.flac Extracted successfully Conclusion: this track is CDDA with probability 100% Tempfile successfully deleted.

11 -===- Z:\Jesper Kyd - Kane & Lynch Dead Men Soundtracks (2007) [FLAC]\Jesper Kyd - Kane & Lynch Dead Men (Original Soundtrack) (2007) (Promo) [FLAC] (CD)\11. Meeting With Retomoto.flac Extracted successfully Conclusion: this track is CDDA with probability 100% Tempfile successfully deleted.

12 -===- Z:\Jesper Kyd - Kane & Lynch Dead Men Soundtracks (2007) [FLAC]\Jesper Kyd - Kane & Lynch Dead Men (Original Soundtrack) (2007) (Promo) [FLAC] (CD)\12. Retomoto Double Cross.flac Extracted successfully Conclusion: this track is CDDA with probability 100% Tempfile successfully deleted.

13 -===- Z:\Jesper Kyd - Kane & Lynch Dead Men Soundtracks (2007) [FLAC]\Jesper Kyd - Kane & Lynch Dead Men (Original Soundtrack) (2007) (Promo) [FLAC] (CD)\13. Subway Fight.flac Extracted successfully Conclusion: this track is CDDA with probability 100% Tempfile successfully deleted.

14 -===- Z:\Jesper Kyd - Kane & Lynch Dead Men Soundtracks (2007) [FLAC]\Jesper Kyd - Kane & Lynch Dead Men (Original Soundtrack) (2007) (Promo) [FLAC] (CD)\14. Entering The Prison.flac Extracted successfully Conclusion: this track is CDDA with probability 100% Tempfile successfully deleted.

15 -===- Z:\Jesper Kyd - Kane & Lynch Dead Men Soundtracks (2007) [FLAC]\Jesper Kyd - Kane & Lynch Dead Men (Original Soundtrack) (2007) (Promo) [FLAC] (CD)\15. Prison Suspense.flac Extracted successfully Conclusion: this track is CDDA with probability 100% Tempfile successfully deleted.

16 -===- Z:\Jesper Kyd - Kane & Lynch Dead Men Soundtracks (2007) [FLAC]\Jesper Kyd - Kane & Lynch Dead Men (Original Soundtrack) (2007) (Promo) [FLAC] (CD)\16. Prison Riot.flac Extracted successfully Conclusion: this track is CDDA with probability 99% Tempfile successfully deleted.

17 -===- Z:\Jesper Kyd - Kane & Lynch Dead Men Soundtracks (2007) [FLAC]\Jesper Kyd - Kane & Lynch Dead Men (Original Soundtrack) (2007) (Promo) [FLAC] (CD)\17. Lynch Breaks Down.flac Extracted successfully Conclusion: this track is CDDA with probability 100% Tempfile successfully deleted.

18 -===- Z:\Jesper Kyd - Kane & Lynch Dead Men Soundtracks (2007) [FLAC]\Jesper Kyd - Kane & Lynch Dead Men (Original Soundtrack) (2007) (Promo) [FLAC] (CD)\18. Truck Fight.flac Extracted successfully Conclusion: this track is CDDA with probability 100% Tempfile successfully deleted.

19 -===- Z:\Jesper Kyd - Kane & Lynch Dead Men Soundtracks (2007) [FLAC]\Jesper Kyd - Kane & Lynch Dead Men (Original Soundtrack) (2007) (Promo) [FLAC] (CD)\19. Training Starts.flac Extracted successfully Conclusion: this track is CDDA with probability 54% Tempfile successfully deleted.

20 -===- Z:\Jesper Kyd - Kane & Lynch Dead Men Soundtracks (2007) [FLAC]\Jesper Kyd - Kane & Lynch Dead Men (Original Soundtrack) (2007) (Promo) [FLAC] (CD)\20. Venezuela Flashback Test.flac Extracted successfully Conclusion: this track is CDDA with probability 100% Tempfile successfully deleted.

21 -===- Z:\Jesper Kyd - Kane & Lynch Dead Men Soundtracks (2007) [FLAC]\Jesper Kyd - Kane & Lynch Dead Men (Original Soundtrack) (2007) (Promo) [FLAC] (CD)\21. Venezuela Stealth.flac Extracted successfully Conclusion: this track is CDDA with probability 100% Tempfile successfully deleted.

22 -===- Z:\Jesper Kyd - Kane & Lynch Dead Men Soundtracks (2007) [FLAC]\Jesper Kyd - Kane & Lynch Dead Men (Original Soundtrack) (2007) (Promo) [FLAC] (CD)\22. Venezuela Suspense.flac Extracted successfully Conclusion: this track is CDDA with probability 100% Tempfile successfully deleted.

23 -===- Z:\Jesper Kyd - Kane & Lynch Dead Men Soundtracks (2007) [FLAC]\Jesper Kyd - Kane & Lynch Dead Men (Original Soundtrack) (2007) (Promo) [FLAC] (CD)\23. Kane's Family Portrait V2.flac Extracted successfully Conclusion: this track is CDDA with probability 100% Tempfile successfully deleted.

Finished at: понедельник, 26. 03. 2018. - 1:32.57 (operation time: 0:01.57)
</div>
</div>
Jesper Kyd - Kane & Lynch Dead Men (2007) (Bonus Disc)
01. Kane's Family Portrait:
06. Training Ambience:


Jesper Kyd - Kane & Lynch Dead Men (Original Soundtrack) (2007) (Promo)
01. Kane's Family Portrait:
19. Training Starts:


Трекер:  [ 10-Июн-2018 03:36 ]

  

Скачать .torrent

Размер .torrent файла 18 KB


Размер: 311 MB
Хэш (hash) релиза: 3f377834ced589f35369123feea930e78157c0fe

Еще никто не оставлял запись к записи скачать торрент . Будь первым!

!Обратная связь